hevc: update conformance streams
[libav.git] / tests / ref / fate / hevc-conformance-SLPPLP_A_VIDYO_1
CommitLineData
f548f9f9
GM
1#tb 0: 1/25
20, 0, 0, 1, 149760, 0x88619f80
30, 1, 1, 1, 149760, 0x550bdaf0
40, 2, 2, 1, 149760, 0x99440a14
50, 3, 3, 1, 149760, 0xcc2c2049
60, 4, 4, 1, 149760, 0x46927368
70, 5, 5, 1, 149760, 0x53cdb3fe
80, 6, 6, 1, 149760, 0x654df025
90, 7, 7, 1, 149760, 0x024d24bc
100, 8, 8, 1, 149760, 0x409138c2
110, 9, 9, 1, 149760, 0xfbb47c48
120, 10, 10, 1, 149760, 0x18caa19d
130, 11, 11, 1, 149760, 0x0f88c2e5
140, 12, 12, 1, 149760, 0x1c16aa2d
150, 13, 13, 1, 149760, 0x60bfcce8
160, 14, 14, 1, 149760, 0x1c38e3d3
170, 15, 15, 1, 149760, 0x0d5b044a
180, 16, 16, 1, 149760, 0x93d21593
190, 17, 17, 1, 149760, 0xdf283910
200, 18, 18, 1, 149760, 0x03324c23
210, 19, 19, 1, 149760, 0x3b175b7b
220, 20, 20, 1, 149760, 0xb91b9a7e
230, 21, 21, 1, 149760, 0x734fbbe7
240, 22, 22, 1, 149760, 0xfc3fea48
250, 23, 23, 1, 149760, 0x6609103e
260, 24, 24, 1, 149760, 0x3f5916fa
270, 25, 25, 1, 149760, 0x08e43f4d
280, 26, 26, 1, 149760, 0xc84e5471
290, 27, 27, 1, 149760, 0xbd4e5c8d
300, 28, 28, 1, 149760, 0x4a4d3995
310, 29, 29, 1, 149760, 0x662163c0
320, 30, 30, 1, 149760, 0xda28671f
330, 31, 31, 1, 149760, 0x19e1878e
340, 32, 32, 1, 149760, 0x19807e67