lavf: add mdec to is_intra_only() list
[libav.git] / tests / ref / fate / psx-str
CommitLineData
d2afbd9a
AK
1#tb 0: 1/15
2#tb 1: 1/37800
30, 0, 0, 1, 115200, 0x6b106a56
41, 0, 0, 2016, 8064, 0x02260037
51, 2016, 2016, 2016, 8064, 0x4ee9f4e9
60, 1, 1, 1, 115200, 0x53c16930
71, 4032, 4032, 2016, 8064, 0xf8fd82aa
80, 2, 2, 1, 115200, 0xe2126f03
91, 6048, 6048, 2016, 8064, 0xc100792b
100, 3, 3, 1, 115200, 0xc3c18ba0
111, 8064, 8064, 2016, 8064, 0xf11a5316
120, 4, 4, 1, 115200, 0xe281b655
131, 10080, 10080, 2016, 8064, 0x6937f8c0
141, 12096, 12096, 2016, 8064, 0xed194e42
150, 5, 5, 1, 115200, 0x7b1e0536
161, 14112, 14112, 2016, 8064, 0x619ce54b
170, 6, 6, 1, 115200, 0xbbd868c5
181, 16128, 16128, 2016, 8064, 0x544999ec
190, 7, 7, 1, 115200, 0xfc67bf8e
201, 18144, 18144, 2016, 8064, 0x0ea877b4
210, 8, 8, 1, 115200, 0xb463151c
221, 20160, 20160, 2016, 8064, 0xb764d1c0
231, 22176, 22176, 2016, 8064, 0x7a2fd211
240, 9, 9, 1, 115200, 0x6e686846
251, 24192, 24192, 2016, 8064, 0xff69f6c5
260, 10, 10, 1, 115200, 0xca36b835
271, 26208, 26208, 2016, 8064, 0x26c11ec7
280, 11, 11, 1, 115200, 0x17b91efc
291, 28224, 28224, 2016, 8064, 0xfb4ecc0c
300, 12, 12, 1, 115200, 0xc051a49a
311, 30240, 30240, 2016, 8064, 0x111d799b
321, 32256, 32256, 2016, 8064, 0xc704dc91
330, 13, 13, 1, 115200, 0xc68c227b
341, 34272, 34272, 2016, 8064, 0xa9f372fb
350, 14, 14, 1, 115200, 0x9ba6b521
361, 36288, 36288, 2016, 8064, 0xa3f0ad0f
370, 15, 15, 1, 115200, 0x09d56ecc
381, 38304, 38304, 2016, 8064, 0x958719b9
390, 16, 16, 1, 115200, 0xc20e3485
401, 40320, 40320, 2016, 8064, 0x9b011bf7
411, 42336, 42336, 2016, 8064, 0x466d96fb
420, 17, 17, 1, 115200, 0xf07e2c48
431, 44352, 44352, 2016, 8064, 0x6ed4eb29
440, 18, 18, 1, 115200, 0x551c6da1
451, 46368, 46368, 2016, 8064, 0x066966db
460, 19, 19, 1, 115200, 0xed65bacd
471, 48384, 48384, 2016, 8064, 0xf60fe0bc
480, 20, 20, 1, 115200, 0x51a23a3b
491, 50400, 50400, 2016, 8064, 0x2c845167
501, 52416, 52416, 2016, 8064, 0x7d63894f
510, 21, 21, 1, 115200, 0x559ddce1
521, 54432, 54432, 2016, 8064, 0x0682ee36
530, 22, 22, 1, 115200, 0x1fef6373
541, 56448, 56448, 2016, 8064, 0xcaeb7c70
550, 23, 23, 1, 115200, 0x11b2dece
561, 58464, 58464, 2016, 8064, 0x93948697
570, 24, 24, 1, 115200, 0x851b877c
581, 60480, 60480, 2016, 8064, 0x5805f0d6
591, 62496, 62496, 2016, 8064, 0xcfb641ff
600, 25, 25, 1, 115200, 0x5f9a7c99
611, 64512, 64512, 2016, 8064, 0xe3499bb1
620, 26, 26, 1, 115200, 0x9ffe6153
631, 66528, 66528, 2016, 8064, 0x689fe483
640, 27, 27, 1, 115200, 0x950b0de8
651, 68544, 68544, 2016, 8064, 0x1b8f2f2d
660, 28, 28, 1, 115200, 0x6ec4c89a
671, 70560, 70560, 2016, 8064, 0x23852e71
681, 72576, 72576, 2016, 8064, 0x15e7b298
690, 29, 29, 1, 115200, 0xa9234812
701, 74592, 74592, 2016, 8064, 0x5345a9a3
710, 30, 30, 1, 115200, 0xc834f491
721, 76608, 76608, 2016, 8064, 0x257b6ecf
730, 31, 31, 1, 115200, 0x2cc1a2aa
741, 78624, 78624, 2016, 8064, 0xaf62836c
750, 32, 32, 1, 115200, 0x5df53b71
761, 80640, 80640, 2016, 8064, 0xc3a401e3
771, 82656, 82656, 2016, 8064, 0x2b98fdf1
780, 33, 33, 1, 115200, 0xe1d0cb31
791, 84672, 84672, 2016, 8064, 0x37168697
800, 34, 34, 1, 115200, 0xa0d2f8ab
811, 86688, 86688, 2016, 8064, 0x2d876c89
820, 35, 35, 1, 115200, 0x9342d739
831, 88704, 88704, 2016, 8064, 0xc40a6ada
840, 36, 36, 1, 115200, 0x586bc658
851, 90720, 90720, 2016, 8064, 0xcca6b829
861, 92736, 92736, 2016, 8064, 0x6667550a
870, 37, 37, 1, 115200, 0x76902834
881, 94752, 94752, 2016, 8064, 0x99c1b5cb
890, 38, 38, 1, 115200, 0x91f25616
901, 96768, 96768, 2016, 8064, 0xc05d3ed3
910, 39, 39, 1, 115200, 0xce8c95fb
921, 98784, 98784, 2016, 8064, 0xdd641781
930, 40, 40, 1, 115200, 0xdf0d3de6
941, 100800, 100800, 2016, 8064, 0xa65d49dc
951, 102816, 102816, 2016, 8064, 0x2a0d5df7
960, 41, 41, 1, 115200, 0x120db7ae
971, 104832, 104832, 2016, 8064, 0xa6348438
980, 42, 42, 1, 115200, 0x2143e287
991, 106848, 106848, 2016, 8064, 0xf2e1412d
1000, 43, 43, 1, 115200, 0x2498d3b6
1011, 108864, 108864, 2016, 8064, 0xc41c6a7a
1020, 44, 44, 1, 115200, 0x99975ff8
1031, 110880, 110880, 2016, 8064, 0x147edc3d
1041, 112896, 112896, 2016, 8064, 0x17e3cfe7
1050, 45, 45, 1, 115200, 0xbad65f9f
1061, 114912, 114912, 2016, 8064, 0x01fe3969
1070, 46, 46, 1, 115200, 0x5066605b
1081, 116928, 116928, 2016, 8064, 0xc437ac11
1090, 47, 47, 1, 115200, 0x6f8a61a0
1101, 118944, 118944, 2016, 8064, 0xbbf747c1
1110, 48, 48, 1, 115200, 0x80c96143
1121, 120960, 120960, 2016, 8064, 0x2a4b88c0
1131, 122976, 122976, 2016, 8064, 0xcd149c80
1140, 49, 49, 1, 115200, 0x663c6198
1151, 124992, 124992, 2016, 8064, 0xcf339dfc
1160, 50, 50, 1, 115200, 0x0354620b
1171, 127008, 127008, 2016, 8064, 0xc81ff84b
1180, 51, 51, 1, 115200, 0xfe186346
1191, 129024, 129024, 2016, 8064, 0x4d978100
1200, 52, 52, 1, 115200, 0x844962f8
1211, 131040, 131040, 2016, 8064, 0x6da6665b
1221, 133056, 133056, 2016, 8064, 0x12fa354f
1230, 53, 53, 1, 115200, 0x917c672f
1241, 135072, 135072, 2016, 8064, 0x6baedae6
1250, 54, 54, 1, 115200, 0x45086647
1261, 137088, 137088, 2016, 8064, 0xddd77327
1270, 55, 55, 1, 115200, 0xace06816
1281, 139104, 139104, 2016, 8064, 0x0a31c118
1290, 56, 56, 1, 115200, 0x4ef26aa2
1301, 141120, 141120, 2016, 8064, 0x7652ee6e
1311, 143136, 143136, 2016, 8064, 0x486a24cc
1320, 57, 57, 1, 115200, 0xf2046bb3
1331, 145152, 145152, 2016, 8064, 0xf6cf01ee
1340, 58, 58, 1, 115200, 0x846b6eb0
1351, 147168, 147168, 2016, 8064, 0x2a19e830
1360, 59, 59, 1, 115200, 0x8a17716d
1371, 149184, 149184, 2016, 8064, 0xde675a31
1380, 60, 60, 1, 115200, 0x36127568
1391, 151200, 151200, 2016, 8064, 0xeefcc9af
1401, 153216, 153216, 2016, 8064, 0xaec4c989
1410, 61, 61, 1, 115200, 0x3e877b5c
1421, 155232, 155232, 2016, 8064, 0x16b73de9
1430, 62, 62, 1, 115200, 0xea5681e8
1441, 157248, 157248, 2016, 8064, 0x188a582a
1450, 63, 63, 1, 115200, 0x41bc8a39
1461, 159264, 159264, 2016, 8064, 0xc092e73d
1470, 64, 64, 1, 115200, 0x6f839446
1481, 161280, 161280, 2016, 8064, 0xf7ebca97
1491, 163296, 163296, 2016, 8064, 0x170ce07a
1500, 65, 65, 1, 115200, 0xef74a005
1511, 165312, 165312, 2016, 8064, 0xa0705384
1520, 66, 66, 1, 115200, 0x4354b2c2
1531, 167328, 167328, 2016, 8064, 0xd0154a3c
1540, 67, 67, 1, 115200, 0x4607cf99
1551, 169344, 169344, 2016, 8064, 0x57c73c6c
1560, 68, 68, 1, 115200, 0x4c18e8db
1571, 171360, 171360, 2016, 8064, 0x590c9ddb
1581, 173376, 173376, 2016, 8064, 0x2cbe552f
1590, 69, 69, 1, 115200, 0x04d71efb
1601, 175392, 175392, 2016, 8064, 0x0d286932
1610, 70, 70, 1, 115200, 0x32f4b9ae
1621, 177408, 177408, 2016, 8064, 0x5931cea3
1630, 71, 71, 1, 115200, 0x4dd48d01
1641, 179424, 179424, 2016, 8064, 0xaf0fb80d
1650, 72, 72, 1, 115200, 0x5fa9627f
1661, 181440, 181440, 2016, 8064, 0x7fb61e9b
1671, 183456, 183456, 2016, 8064, 0xf17134bb
1680, 73, 73, 1, 115200, 0x7a413f88
1691, 185472, 185472, 2016, 8064, 0xd647859a
1700, 74, 74, 1, 115200, 0xf1b7e5b6
1711, 187488, 187488, 2016, 8064, 0x55a60921
1720, 75, 75, 1, 115200, 0x3d720e05
1731, 189504, 189504, 2016, 8064, 0x3811fa58
1740, 76, 76, 1, 115200, 0x49243fd8
1751, 191520, 191520, 2016, 8064, 0xaceeccea
1761, 193536, 193536, 2016, 8064, 0x5fcedf14
1770, 77, 77, 1, 115200, 0x9834b697
1781, 195552, 195552, 2016, 8064, 0xd8c64abf
1790, 78, 78, 1, 115200, 0x4b8bc217
1801, 197568, 197568, 2016, 8064, 0x79495e8d
1810, 79, 79, 1, 115200, 0x3eaf5504
1821, 199584, 199584, 2016, 8064, 0x4b7db039
1830, 80, 80, 1, 115200, 0x057a3701
1841, 201600, 201600, 2016, 8064, 0x7152f86d
1851, 203616, 203616, 2016, 8064, 0xd92cfc1a
1860, 81, 81, 1, 115200, 0x6e88f21a
1871, 205632, 205632, 2016, 8064, 0x75c540ef
1880, 82, 82, 1, 115200, 0x236c5226
1891, 207648, 207648, 2016, 8064, 0x9c03ef5e
1900, 83, 83, 1, 115200, 0x92212d84
1911, 209664, 209664, 2016, 8064, 0x7b2911c8
1920, 84, 84, 1, 115200, 0xf6b0a4ff
1931, 211680, 211680, 2016, 8064, 0x69d9d553
1941, 213696, 213696, 2016, 8064, 0xcb45d7c5
1950, 85, 85, 1, 115200, 0xb49e9b4e
1961, 215712, 215712, 2016, 8064, 0x37ec8b0a
1970, 86, 86, 1, 115200, 0x4a252440
1981, 217728, 217728, 2016, 8064, 0xe4354221
1990, 87, 87, 1, 115200, 0x65f3339a
2001, 219744, 219744, 2016, 8064, 0xc0d91cdb
2010, 88, 88, 1, 115200, 0x38e40a20
2021, 221760, 221760, 2016, 8064, 0xea0be175