fate: qtrle: disable audio in all tests
[libav.git] / tests / ref / fate / qtrle-1bit
CommitLineData
832ba44d 1#tb 0: 1/1200
832ba44d 20, 0, 0, 0, 9600, 0xc1632102
832ba44d 30, 100, 100, 0, 9600, 0x0f6c0521
832ba44d 40, 200, 200, 0, 9600, 0x04b90b5a
832ba44d 50, 300, 300, 0, 9600, 0x2ebd4500
832ba44d 60, 400, 400, 0, 9600, 0x726f46f4
832ba44d 70, 500, 500, 0, 9600, 0x37f6968e
832ba44d 80, 600, 600, 0, 9600, 0x7305872e
832ba44d 90, 700, 700, 0, 9600, 0x222eff5e
832ba44d 100, 800, 800, 0, 9600, 0x9317e227
832ba44d 110, 900, 900, 0, 9600, 0x421eee9d
832ba44d 120, 1000, 1000, 0, 9600, 0xcbcfaaff
832ba44d 130, 1100, 1100, 0, 9600, 0xe7d43be2
832ba44d 140, 1200, 1200, 0, 9600, 0x0b71e28c
832ba44d 150, 1300, 1300, 0, 9600, 0xd6a050ca
832ba44d 160, 1400, 1400, 0, 9600, 0x0ac6dbf5
832ba44d 170, 1500, 1500, 0, 9600, 0x5c036038
832ba44d 180, 1600, 1600, 0, 9600, 0x6e417ed6
832ba44d 190, 1700, 1700, 0, 9600, 0x8bd0dc22
832ba44d 200, 1800, 1800, 0, 9600, 0xdf3b0877
832ba44d 210, 1900, 1900, 0, 9600, 0xae6e7823
832ba44d 220, 2000, 2000, 0, 9600, 0x8ff0ac32
832ba44d 230, 2100, 2100, 0, 9600, 0xa2d9e2ce
832ba44d 240, 2200, 2200, 0, 9600, 0x5fd92b65
832ba44d 250, 2300, 2300, 0, 9600, 0x81c1c824
832ba44d 260, 2400, 2400, 0, 9600, 0xb8a2ace4
832ba44d 270, 2500, 2500, 0, 9600, 0x65b70404
832ba44d 280, 2600, 2600, 0, 9600, 0xc5349eb2
832ba44d 290, 2700, 2700, 0, 9600, 0xf60cc2b8
832ba44d 300, 2800, 2800, 0, 9600, 0x31474595
832ba44d 310, 2900, 2900, 0, 9600, 0xf602635b
832ba44d 320, 3000, 3000, 0, 9600, 0x873cbd87
832ba44d 330, 3100, 3100, 0, 9600, 0xb9793ffe
832ba44d 340, 3200, 3200, 0, 9600, 0x42eb2831
832ba44d 350, 3300, 3300, 0, 9600, 0x44cc1dab
832ba44d 360, 3400, 3400, 0, 9600, 0xbdcbbb87
832ba44d 370, 3500, 3500, 0, 9600, 0x29c22df7
832ba44d 380, 3600, 3600, 0, 9600, 0xde502ef5
832ba44d 390, 3700, 3700, 0, 9600, 0xaf311aeb