fate: qtrle: disable audio in all tests
[libav.git] / tests / ref / fate / qtrle-2bit
CommitLineData
832ba44d 1#tb 0: 1/1200
832ba44d 20, 0, 0, 0, 230400, 0xb1ee55dc
832ba44d 30, 100, 100, 0, 230400, 0x97c580bf
832ba44d 40, 200, 200, 0, 230400, 0xd4bd57e8
832ba44d 50, 300, 300, 0, 230400, 0x412b79aa
832ba44d 60, 400, 400, 0, 230400, 0x928a44d1
832ba44d 70, 500, 500, 0, 230400, 0x6bbdc0e4
832ba44d 80, 600, 600, 0, 230400, 0x382e960f
832ba44d 90, 700, 700, 0, 230400, 0x62c863ea
832ba44d 100, 800, 800, 0, 230400, 0xbfccd3ce
832ba44d 110, 900, 900, 0, 230400, 0x1987cdd4
832ba44d 120, 1000, 1000, 0, 230400, 0x40279727
832ba44d 130, 1100, 1100, 0, 230400, 0x9d4f6746
832ba44d 140, 1200, 1200, 0, 230400, 0x7b8a77ec
832ba44d 150, 1300, 1300, 0, 230400, 0x2ce7a781
832ba44d 160, 1400, 1400, 0, 230400, 0xb749815e
832ba44d 170, 1500, 1500, 0, 230400, 0x61c88610
832ba44d 180, 1600, 1600, 0, 230400, 0x8449114d
832ba44d 190, 1700, 1700, 0, 230400, 0x5f73e666
832ba44d 200, 1800, 1800, 0, 230400, 0xbde53ce6
832ba44d 210, 1900, 1900, 0, 230400, 0x8c7406fd
832ba44d 220, 2000, 2000, 0, 230400, 0xf9e9a3ef
832ba44d 230, 2100, 2100, 0, 230400, 0x7e0a3077
832ba44d 240, 2200, 2200, 0, 230400, 0xd9245c5f
832ba44d 250, 2300, 2300, 0, 230400, 0x6d077ea2
832ba44d 260, 2400, 2400, 0, 230400, 0xf622bb2a
832ba44d 270, 2500, 2500, 0, 230400, 0x35292dc8
832ba44d 280, 2600, 2600, 0, 230400, 0xc0cea946
832ba44d 290, 2700, 2700, 0, 230400, 0x98b27b60
832ba44d 300, 2800, 2800, 0, 230400, 0x668ef6bd
832ba44d 310, 2900, 2900, 0, 230400, 0x6c07a31c
832ba44d 320, 3000, 3000, 0, 230400, 0x0b4a6ae1
832ba44d 330, 3100, 3100, 0, 230400, 0x945b9878
832ba44d 340, 3200, 3200, 0, 230400, 0xab28031c
832ba44d 350, 3300, 3300, 0, 230400, 0x977252b0
832ba44d 360, 3400, 3400, 0, 230400, 0x6c3d9706
832ba44d 370, 3500, 3500, 0, 230400, 0xe053bc2a
832ba44d 380, 3600, 3600, 0, 230400, 0x4cf2fc7c
832ba44d 390, 3700, 3700, 0, 230400, 0x610beda7