fate: rename psx-str-v3-mdec to mdec-v3
[libav.git] / tests / ref / fate / smc
CommitLineData
832ba44d 1#tb 0: 1/30
d2afbd9a 20, 0, 0, 1, 230400, 0xf814fc90
832ba44d
AK
30, 3, 3, 1, 230400, 0xe1b13137
40, 6, 6, 1, 230400, 0xa7f4d408
50, 9, 9, 1, 230400, 0x4b86e1d5
60, 12, 12, 1, 230400, 0xc663af5a
70, 15, 15, 1, 230400, 0x943b5757
80, 18, 18, 1, 230400, 0x0d7ee496
90, 21, 21, 1, 230400, 0x78792de4
100, 24, 24, 1, 230400, 0xd102fb8d
110, 27, 27, 1, 230400, 0xf9006139
120, 30, 30, 1, 230400, 0x216bd87d
130, 33, 33, 1, 230400, 0x1e4c902c
140, 36, 36, 1, 230400, 0x5aaa7742
150, 39, 39, 1, 230400, 0x48699d93
160, 42, 42, 1, 230400, 0xd1e22a5c
170, 45, 45, 1, 230400, 0x18929315
180, 48, 48, 1, 230400, 0x680dd4d3
190, 51, 51, 1, 230400, 0x4cdbcbcb
200, 54, 54, 1, 230400, 0x6f810d98
210, 57, 57, 1, 230400, 0xb4f68204
220, 60, 60, 1, 230400, 0xbd3bb19e
230, 63, 63, 1, 230400, 0xab27b424
240, 66, 66, 1, 230400, 0xe5dd675d
250, 69, 69, 1, 230400, 0x811e45a1
260, 72, 72, 1, 230400, 0x951011f7
270, 75, 75, 1, 230400, 0x2f1e2b99
280, 78, 78, 1, 230400, 0x6657c0d6
290, 81, 81, 1, 230400, 0xfd29177d
300, 84, 84, 1, 230400, 0x4b4c01d7
310, 87, 87, 1, 230400, 0x9af286aa
320, 90, 90, 1, 230400, 0xc4e9b193
330, 93, 93, 1, 230400, 0x05dc28ec
340, 96, 96, 1, 230400, 0x68352119
350, 99, 99, 1, 230400, 0x0b87e79c
360, 102, 102, 1, 230400, 0x8358b180
370, 105, 105, 1, 230400, 0x8debbc9d
380, 108, 108, 1, 230400, 0x961c58ce
390, 111, 111, 1, 230400, 0xd8a809c8
400, 114, 114, 1, 230400, 0x5351789d
410, 117, 117, 1, 230400, 0xa7ca598c
420, 120, 120, 1, 230400, 0xc5ce1812
430, 123, 123, 1, 230400, 0x74496550
440, 126, 126, 1, 230400, 0x326e366e
450, 129, 129, 1, 230400, 0x27ae9a92
460, 132, 132, 1, 230400, 0xadbc8794
470, 135, 135, 1, 230400, 0x7f3587d8
480, 138, 138, 1, 230400, 0xf0400ca6
490, 141, 141, 1, 230400, 0x59a5138e
500, 144, 144, 1, 230400, 0x456d62a5
510, 147, 147, 1, 230400, 0xf1a5e5f1
520, 150, 150, 1, 230400, 0x75c712e4
530, 153, 153, 1, 230400, 0xd160780a
540, 156, 156, 1, 230400, 0xc6c23cf0
550, 159, 159, 1, 230400, 0x0339a2ac
560, 162, 162, 1, 230400, 0x0e27a2e2
570, 165, 165, 1, 230400, 0x84976300
580, 168, 168, 1, 230400, 0xb368f3c4
590, 171, 171, 1, 230400, 0xa5231fb8
600, 174, 174, 1, 230400, 0x17c036d4
610, 177, 177, 1, 230400, 0xfc81a2c0
620, 180, 180, 1, 230400, 0x99faa403
630, 183, 183, 1, 230400, 0xff59efd3
640, 186, 186, 1, 230400, 0xcece1d23
650, 189, 189, 1, 230400, 0x56c785d9
660, 192, 192, 1, 230400, 0xe5a9f222
670, 195, 195, 1, 230400, 0xb80946f8
680, 198, 198, 1, 230400, 0xf6b642c6
690, 201, 201, 1, 230400, 0x69573aed
700, 204, 204, 1, 230400, 0xfb69a1fd
710, 207, 207, 1, 230400, 0x100b47f4
720, 210, 210, 1, 230400, 0x6edf9543
730, 213, 213, 1, 230400, 0x11fdf43c
740, 216, 216, 1, 230400, 0xd143bf2a
750, 219, 219, 1, 230400, 0x7ca747c4
760, 222, 222, 1, 230400, 0xd984bd73
770, 225, 225, 1, 230400, 0xc5477e8d
780, 228, 228, 1, 230400, 0xf7d58300
790, 231, 231, 1, 230400, 0x7a1b9463
800, 234, 234, 1, 230400, 0x47a29342
810, 237, 237, 1, 230400, 0xdf437f9d
820, 240, 240, 1, 230400, 0xf836ef5d
830, 243, 243, 1, 230400, 0xc98937af
840, 246, 246, 1, 230400, 0x9258695b
850, 249, 249, 1, 230400, 0xd4fe179c
860, 252, 252, 1, 230400, 0x35d524d3
870, 255, 255, 1, 230400, 0xd9ce5484
880, 258, 258, 1, 230400, 0xdef776ed
890, 261, 261, 1, 230400, 0x154c4057
900, 264, 264, 1, 230400, 0xf5c764f1
910, 267, 267, 1, 230400, 0x41979b13
920, 270, 270, 1, 230400, 0xae4e83db
930, 273, 273, 1, 230400, 0x09fc0f83
940, 276, 276, 1, 230400, 0x60267fdf
950, 279, 279, 1, 230400, 0xeaafc525
960, 282, 282, 1, 230400, 0x80cc35e5
970, 285, 285, 1, 230400, 0xd82c6164
980, 288, 288, 1, 230400, 0xd68b8111
990, 291, 291, 1, 230400, 0x96f874a3
1000, 294, 294, 1, 230400, 0x7fc861c4
1010, 297, 297, 1, 230400, 0xb911f310
1020, 300, 300, 1, 230400, 0x35bbf5aa
1030, 303, 303, 1, 230400, 0xa922b683
1040, 306, 306, 1, 230400, 0xbf6ae353
1050, 309, 309, 1, 230400, 0x6bd3984c
1060, 312, 312, 1, 230400, 0xe51768c0
1070, 315, 315, 1, 230400, 0xee691624
1080, 318, 318, 1, 230400, 0xd546fed7
1090, 321, 321, 1, 230400, 0x98d375e6
1100, 324, 324, 1, 230400, 0x3b9ca990
1110, 327, 327, 1, 230400, 0x27128ad1
1120, 330, 330, 1, 230400, 0x2788e38c
1130, 333, 333, 1, 230400, 0xb0cf3381
1140, 336, 336, 1, 230400, 0x4fc86d39
1150, 339, 339, 1, 230400, 0xf5632fff
1160, 342, 342, 1, 230400, 0x7fa1e6c2
1170, 345, 345, 1, 230400, 0xffeef044
1180, 348, 348, 1, 230400, 0x932af385
1190, 351, 351, 1, 230400, 0x76738428
1200, 354, 354, 1, 230400, 0xf6771ba2
1210, 357, 357, 1, 230400, 0x17e2ff27