fate: Add another SVQ3 test to increase coverage
[libav.git] / tests / ref / fate / svq3-1
CommitLineData
832ba44d 1#tb 0: 1/600
d2afbd9a 20, 0, 0, 1, 115200, 0x2c810465
832ba44d
AK
30, 20, 20, 1, 115200, 0x010b5765
40, 40, 40, 1, 115200, 0x2be11a4e
50, 60, 60, 1, 115200, 0x99445d06
60, 80, 80, 1, 115200, 0x6b54d83c
70, 100, 100, 1, 115200, 0x3832b76a
80, 120, 120, 1, 115200, 0x3832b76a
90, 140, 140, 1, 115200, 0xe18385db
100, 160, 160, 1, 115200, 0x847d4bf0
110, 180, 180, 1, 115200, 0x0d650f50
120, 200, 200, 1, 115200, 0x4b85c44c
130, 220, 220, 1, 115200, 0xce1927a6
140, 240, 240, 1, 115200, 0x89353747
150, 260, 260, 1, 115200, 0x58da43f2
160, 280, 280, 1, 115200, 0xee9a4eef
170, 300, 300, 1, 115200, 0xce9453d9
180, 320, 320, 1, 115200, 0x804a5eb0
190, 340, 340, 1, 115200, 0xb3d46605
200, 360, 360, 1, 115200, 0x45b5668e
210, 380, 380, 1, 115200, 0xdd0d4c5a
220, 400, 400, 1, 115200, 0x99101301
230, 420, 420, 1, 115200, 0xf0c3f272
240, 440, 440, 1, 115200, 0xea21f8b1
250, 460, 460, 1, 115200, 0xd8e7fbb1
260, 480, 480, 1, 115200, 0x89d90aa1
270, 500, 500, 1, 115200, 0x882e19da
280, 520, 520, 1, 115200, 0xfc0f2709
290, 540, 540, 1, 115200, 0x9b732f3f
300, 560, 560, 1, 115200, 0xec453cda
310, 580, 580, 1, 115200, 0xa77e4989
320, 600, 600, 1, 115200, 0xad935834
330, 620, 620, 1, 115200, 0x3a5a6177
340, 640, 640, 1, 115200, 0xd3c07999
350, 660, 660, 1, 115200, 0xfad388dd
360, 680, 680, 1, 115200, 0xaf6e9520
370, 700, 700, 1, 115200, 0xdb64a4b3
380, 720, 720, 1, 115200, 0xc6f9b49e
390, 740, 740, 1, 115200, 0x4446c315
400, 760, 760, 1, 115200, 0x660bd01c
410, 780, 780, 1, 115200, 0x963fdd7d
420, 800, 800, 1, 115200, 0x8733e7b3
430, 820, 820, 1, 115200, 0x41aaf1d5
440, 840, 840, 1, 115200, 0xa803fd81
450, 860, 860, 1, 115200, 0xe2b4077f
460, 880, 880, 1, 115200, 0xfe6707cb
470, 900, 900, 1, 115200, 0x027c122d
480, 920, 920, 1, 115200, 0xbcb81ea8
490, 940, 940, 1, 115200, 0xd2ac2405
500, 960, 960, 1, 115200, 0x3d893006
510, 980, 980, 1, 115200, 0xbdcc3ba8
520, 1000, 1000, 1, 115200, 0x83ed4c6b
530, 1020, 1020, 1, 115200, 0x69ee5e7c
540, 1040, 1040, 1, 115200, 0xfe317411
550, 1060, 1060, 1, 115200, 0x849e84e6
560, 1080, 1080, 1, 115200, 0x040f945f
570, 1100, 1100, 1, 115200, 0x6481ac89
580, 1120, 1120, 1, 115200, 0x8a48be9e
590, 1140, 1140, 1, 115200, 0xb162ce94
600, 1160, 1160, 1, 115200, 0x178dd69a
610, 1180, 1180, 1, 115200, 0x64fdecaa
620, 1200, 1200, 1, 115200, 0x4b51297e
630, 1220, 1220, 1, 115200, 0x3d39a1ae
640, 1240, 1240, 1, 115200, 0x900fd939
650, 1260, 1260, 1, 115200, 0x7704fb19
660, 1280, 1280, 1, 115200, 0xa426137e
670, 1300, 1300, 1, 115200, 0x9a112706
680, 1320, 1320, 1, 115200, 0x294931f7
690, 1340, 1340, 1, 115200, 0x0d0e4372
700, 1360, 1360, 1, 115200, 0x33bd50e4
710, 1380, 1380, 1, 115200, 0x9c86e3e2
720, 1400, 1400, 1, 115200, 0x714af5d5
730, 1420, 1420, 1, 115200, 0xc5f9fcd0
740, 1440, 1440, 1, 115200, 0x184602bb
750, 1460, 1460, 1, 115200, 0x6958e9e6
760, 1480, 1480, 1, 115200, 0x5a214952
770, 1500, 1500, 1, 115200, 0x706cca0e
780, 1520, 1520, 1, 115200, 0x67689363
790, 1540, 1540, 1, 115200, 0x459f410c
800, 1560, 1560, 1, 115200, 0xa8f4c365
810, 1580, 1580, 1, 115200, 0xf1fc50c5
820, 1600, 1600, 1, 115200, 0xc22af545
830, 1620, 1620, 1, 115200, 0xd39802a2
840, 1640, 1640, 1, 115200, 0xb76c04b6
850, 1660, 1660, 1, 115200, 0x7a548db4
860, 1680, 1680, 1, 115200, 0x79e56765
870, 1700, 1700, 1, 115200, 0x3f273a17
880, 1720, 1720, 1, 115200, 0xe04366db
890, 1740, 1740, 1, 115200, 0x8e10939b
900, 1760, 1760, 1, 115200, 0x49220ea2
910, 1780, 1780, 1, 115200, 0x35361889
920, 1800, 1800, 1, 115200, 0x9b20bdfa
930, 1820, 1820, 1, 115200, 0x5d472eaf
940, 1840, 1840, 1, 115200, 0xeda43081
950, 1860, 1860, 1, 115200, 0x59bae8b4
960, 1880, 1880, 1, 115200, 0xf126d6a4
970, 1900, 1900, 1, 115200, 0x18106464
980, 1920, 1920, 1, 115200, 0x85530c73
990, 1940, 1940, 1, 115200, 0xcef32c78
1000, 1960, 1960, 1, 115200, 0xfd6233a0
1010, 1980, 1980, 1, 115200, 0xae9d6fc3
1020, 2000, 2000, 1, 115200, 0x3d0cce10
1030, 2020, 2020, 1, 115200, 0xfce5f124
1040, 2040, 2040, 1, 115200, 0x90b10802
1050, 2060, 2060, 1, 115200, 0xeea44201
1060, 2080, 2080, 1, 115200, 0x1cefb56d
1070, 2100, 2100, 1, 115200, 0xd6daa0b1
1080, 2120, 2120, 1, 115200, 0xd700cef4
1090, 2140, 2140, 1, 115200, 0x36dbf58f
1100, 2160, 2160, 1, 115200, 0xdb20d060
1110, 2180, 2180, 1, 115200, 0x5ca61fd5
1120, 2200, 2200, 1, 115200, 0x4f271361
1130, 2220, 2220, 1, 115200, 0xcaf03743
1140, 2240, 2240, 1, 115200, 0x520f351a
1150, 2260, 2260, 1, 115200, 0x40bc7b89
1160, 2280, 2280, 1, 115200, 0xd0af0b08
1170, 2300, 2300, 1, 115200, 0x6a45290c
1180, 2320, 2320, 1, 115200, 0x57210c14
1190, 2340, 2340, 1, 115200, 0xc1e233f9
1200, 2360, 2360, 1, 115200, 0x96fdfc54
1210, 2380, 2380, 1, 115200, 0x43a8359c
1220, 2400, 2400, 1, 115200, 0xd493bfde
1230, 2420, 2420, 1, 115200, 0xd5339d13
1240, 2440, 2440, 1, 115200, 0x7542baa0
1250, 2460, 2460, 1, 115200, 0x268d2cb9
1260, 2480, 2480, 1, 115200, 0xaf3888bb
1270, 2500, 2500, 1, 115200, 0xb82f520a
1280, 2520, 2520, 1, 115200, 0x0feb2981
1290, 2540, 2540, 1, 115200, 0x45314b58
1300, 2560, 2560, 1, 115200, 0xb26a193a
1310, 2580, 2580, 1, 115200, 0xdfdffc38
1320, 2600, 2600, 1, 115200, 0xec6a55f5
1330, 2620, 2620, 1, 115200, 0xf6e35716
1340, 2640, 2640, 1, 115200, 0x5ce8544e
1350, 2660, 2660, 1, 115200, 0x3e38ddce
1360, 2680, 2680, 1, 115200, 0x964a2006
1370, 2700, 2700, 1, 115200, 0xaba138d6
1380, 2720, 2720, 1, 115200, 0x2f46949c
1390, 2740, 2740, 1, 115200, 0xbdbdb587
1400, 2760, 2760, 1, 115200, 0x1bf11e1d
1410, 2780, 2780, 1, 115200, 0x2632f558
1420, 2800, 2800, 1, 115200, 0x0e58078b
1430, 2820, 2820, 1, 115200, 0x2ab2f9be
1440, 2840, 2840, 1, 115200, 0x9205f1d8
1450, 2860, 2860, 1, 115200, 0x6a4bd949
1460, 2880, 2880, 1, 115200, 0xedc1552f
1470, 2900, 2900, 1, 115200, 0x0a60974d
1480, 2920, 2920, 1, 115200, 0xe1a1400e
1490, 2940, 2940, 1, 115200, 0x45f06952
1500, 2960, 2960, 1, 115200, 0xc5163125
1510, 2980, 2980, 1, 115200, 0x151da156
1520, 3000, 3000, 1, 115200, 0x3f34b048
1530, 3020, 3020, 1, 115200, 0xcf7c1e5d
1540, 3040, 3040, 1, 115200, 0xed9c4e1c
1550, 3060, 3060, 1, 115200, 0x47e06453
1560, 3080, 3080, 1, 115200, 0xc8ce6f19
1570, 3100, 3100, 1, 115200, 0xac619619
1580, 3120, 3120, 1, 115200, 0x64711e2d
1590, 3140, 3140, 1, 115200, 0x1f502b52
1600, 3160, 3160, 1, 115200, 0x39592c9d
1610, 3180, 3180, 1, 115200, 0x7dffb901
1620, 3200, 3200, 1, 115200, 0xc75fa3ce
1630, 3220, 3220, 1, 115200, 0x625bc977
1640, 3240, 3240, 1, 115200, 0x15c7fda3
1650, 3260, 3260, 1, 115200, 0x6e5d35b5
1660, 3280, 3280, 1, 115200, 0xf847cf88
1670, 3300, 3300, 1, 115200, 0xc10867fe
1680, 3320, 3320, 1, 115200, 0xae07fbfc
1690, 3340, 3340, 1, 115200, 0xc1571542
1700, 3360, 3360, 1, 115200, 0x4c7d5602
1710, 3380, 3380, 1, 115200, 0xbe7045aa
1720, 3400, 3400, 1, 115200, 0xc8b4835b
1730, 3420, 3420, 1, 115200, 0xf9b7d427
1740, 3440, 3440, 1, 115200, 0x7fa7c112
1750, 3460, 3460, 1, 115200, 0xe0105feb
1760, 3480, 3480, 1, 115200, 0x70784740
1770, 3500, 3500, 1, 115200, 0xa6801ef5
1780, 3520, 3520, 1, 115200, 0x9cf35921
1790, 3540, 3540, 1, 115200, 0x4d956630
1800, 3560, 3560, 1, 115200, 0x717a25c1
1810, 3580, 3580, 1, 115200, 0x8f5e39de