fate: truemotion1: disable audio
[libav.git] / tests / ref / fate / truemotion1-15
CommitLineData
d2afbd9a 1#tb 0: 1/15
d2afbd9a 20, 0, 0, 1, 161280, 0x7041748d
d2afbd9a 30, 1, 1, 1, 161280, 0x3cc4dfb5
d2afbd9a 40, 2, 2, 1, 161280, 0xca3af22d
d2afbd9a 50, 3, 3, 1, 161280, 0x23ad1d85
d2afbd9a 60, 4, 4, 1, 161280, 0x9c9cf364
d2afbd9a 70, 5, 5, 1, 161280, 0x1551d6a8
d2afbd9a 80, 6, 6, 1, 161280, 0xc39f6b95
d2afbd9a 90, 7, 7, 1, 161280, 0x3b036dcc
d2afbd9a 100, 8, 8, 1, 161280, 0xa6fac1db
d2afbd9a 110, 9, 9, 1, 161280, 0x67656b62
d2afbd9a 120, 10, 10, 1, 161280, 0xb41f47d1
d2afbd9a 130, 11, 11, 1, 161280, 0xc207249e
d2afbd9a 140, 12, 12, 1, 161280, 0xbee8f843
d2afbd9a 150, 13, 13, 1, 161280, 0x092acf46
d2afbd9a 160, 14, 14, 1, 161280, 0x8d9e2680
d2afbd9a 170, 15, 15, 1, 161280, 0x8becc20c
d2afbd9a 180, 16, 16, 1, 161280, 0x655e444e
d2afbd9a 190, 17, 17, 1, 161280, 0x5c112da0
d2afbd9a 200, 18, 18, 1, 161280, 0x232fa9eb
d2afbd9a 210, 19, 19, 1, 161280, 0x9721745d
d2afbd9a 220, 20, 20, 1, 161280, 0x92f1d880
d2afbd9a 230, 21, 21, 1, 161280, 0x16233978
d2afbd9a 240, 22, 22, 1, 161280, 0x19a27e69
d2afbd9a 250, 23, 23, 1, 161280, 0x7b6ad73a
d2afbd9a 260, 24, 24, 1, 161280, 0xa7a674aa
d2afbd9a 270, 25, 25, 1, 161280, 0x4e434abb
d2afbd9a 280, 26, 26, 1, 161280, 0xb96eea14
d2afbd9a 290, 27, 27, 1, 161280, 0x1350188c
d2afbd9a 300, 28, 28, 1, 161280, 0x79c6f305
d2afbd9a 310, 29, 29, 1, 161280, 0xa9c7782d
d2afbd9a 320, 30, 30, 1, 161280, 0x40a4f456
d2afbd9a 330, 31, 31, 1, 161280, 0xaf291ed6
d2afbd9a 340, 32, 32, 1, 161280, 0xab29b4e1
d2afbd9a 350, 33, 33, 1, 161280, 0xbfcd2712
d2afbd9a 360, 34, 34, 1, 161280, 0xff22a0d7
d2afbd9a 370, 35, 35, 1, 161280, 0xb0ae88a9
d2afbd9a 380, 36, 36, 1, 161280, 0x811d1259
d2afbd9a 390, 37, 37, 1, 161280, 0x593c39a1
d2afbd9a 400, 38, 38, 1, 161280, 0x5a5a97f8
d2afbd9a 410, 39, 39, 1, 161280, 0xa5639ecf
d2afbd9a 420, 40, 40, 1, 161280, 0x543920c6
d2afbd9a 430, 41, 41, 1, 161280, 0xb41689ee
d2afbd9a 440, 42, 42, 1, 161280, 0xc0ad83de
d2afbd9a 450, 43, 43, 1, 161280, 0x9e9e7456
d2afbd9a 460, 44, 44, 1, 161280, 0x777ccbfe
d2afbd9a 470, 45, 45, 1, 161280, 0x9c2df916
d2afbd9a 480, 46, 46, 1, 161280, 0xe0c13b35
d2afbd9a 490, 47, 47, 1, 161280, 0x39bfa5a5
d2afbd9a 500, 48, 48, 1, 161280, 0x35dfb264
d2afbd9a 510, 49, 49, 1, 161280, 0x43018613
d2afbd9a 520, 50, 50, 1, 161280, 0x43584b8a
d2afbd9a 530, 51, 51, 1, 161280, 0xa5cd230a
d2afbd9a 540, 52, 52, 1, 161280, 0x6fe2cfb3
d2afbd9a 550, 53, 53, 1, 161280, 0x88a7c0db
d2afbd9a 560, 54, 54, 1, 161280, 0x476f1cd2
d2afbd9a 570, 55, 55, 1, 161280, 0x96401d49
d2afbd9a 580, 56, 56, 1, 161280, 0x7d932919
d2afbd9a 590, 57, 57, 1, 161280, 0x06465481
d2afbd9a 600, 58, 58, 1, 161280, 0x39631520
d2afbd9a 610, 59, 59, 1, 161280, 0xc3fff780
d2afbd9a 620, 60, 60, 1, 161280, 0xa81faf28
d2afbd9a 630, 61, 61, 1, 161280, 0x7a311f4f
d2afbd9a 640, 62, 62, 1, 161280, 0x52f9b931
d2afbd9a 650, 63, 63, 1, 161280, 0x938cf016
d2afbd9a 660, 64, 64, 1, 161280, 0xf8f6e19c
d2afbd9a 670, 65, 65, 1, 161280, 0xca90561b
d2afbd9a 680, 66, 66, 1, 161280, 0x8594d06b
d2afbd9a 690, 67, 67, 1, 161280, 0xea32bf3b
d2afbd9a 700, 68, 68, 1, 161280, 0x4646111a
d2afbd9a 710, 69, 69, 1, 161280, 0xee891162
d2afbd9a 720, 70, 70, 1, 161280, 0xcfc32082
d2afbd9a 730, 71, 71, 1, 161280, 0x863c281a
d2afbd9a 740, 72, 72, 1, 161280, 0x01b591aa
d2afbd9a 750, 73, 73, 1, 161280, 0x211fbc62
d2afbd9a 760, 74, 74, 1, 161280, 0xae2bafe2
d2afbd9a 770, 75, 75, 1, 161280, 0xcfe46dca
d2afbd9a 780, 76, 76, 1, 161280, 0xcf8fe8a3
d2afbd9a 790, 77, 77, 1, 161280, 0x3f8474eb
d2afbd9a 800, 78, 78, 1, 161280, 0x06da345a
d2afbd9a 810, 79, 79, 1, 161280, 0xbd4d3280
d2afbd9a 820, 80, 80, 1, 161280, 0xb5e70fea
d2afbd9a 830, 81, 81, 1, 161280, 0x0c99c804
d2afbd9a 840, 82, 82, 1, 161280, 0x19841ed4
d2afbd9a 850, 83, 83, 1, 161280, 0xf81dea50
d2afbd9a 860, 84, 84, 1, 161280, 0x7777d81c
d2afbd9a 870, 85, 85, 1, 161280, 0x0497cfd8
d2afbd9a 880, 86, 86, 1, 161280, 0x50b6eb64
d2afbd9a 890, 87, 87, 1, 161280, 0x5071fc07
d2afbd9a 900, 88, 88, 1, 161280, 0xbb7527fb
d2afbd9a 910, 89, 89, 1, 161280, 0x13054f1f
d2afbd9a 920, 90, 90, 1, 161280, 0x4b78fb27
d2afbd9a 930, 91, 91, 1, 161280, 0xf504968f
d2afbd9a 940, 92, 92, 1, 161280, 0x555b10b7
d2afbd9a 950, 93, 93, 1, 161280, 0xcc0dde40
d2afbd9a 960, 94, 94, 1, 161280, 0xcc0dde40
d2afbd9a 970, 95, 95, 1, 161280, 0x367f60c8
d2afbd9a 980, 96, 96, 1, 161280, 0x367f60c8
d2afbd9a 990, 97, 97, 1, 161280, 0x367f60c8
d2afbd9a 1000, 98, 98, 1, 161280, 0x367f60c8
d2afbd9a 1010, 99, 99, 1, 161280, 0x367f60c8
d2afbd9a 1020, 100, 100, 1, 161280, 0x367f60c8
d2afbd9a 1030, 101, 101, 1, 161280, 0x367f60c8
d2afbd9a 1040, 102, 102, 1, 161280, 0x367f60c8
d2afbd9a 1050, 103, 103, 1, 161280, 0x367f60c8
d2afbd9a 1060, 104, 104, 1, 161280, 0x367f60c8