aarch64: Add assembly support for -fsanitize=hwaddress tagged globals.
[libav.git] / tests / ref / fate / txd-16bpp
CommitLineData
a4ed995c 1#tb 0: 1/5
e2bd03a1
MS
20, 0, 0, 1, 16384, 0x4d39b4cb
30, 1, 1, 1, 16384, 0x2a8d14b4
40, 2, 2, 1, 16384, 0xe26793cb
50, 3, 3, 1, 16384, 0x62b5ed43
60, 4, 4, 1, 16384, 0x5ae86c21
70, 5, 5, 1, 16384, 0x416d184a
80, 6, 6, 1, 16384, 0x33f59d3e
90, 7, 7, 1, 16384, 0x3d0ffd9c
100, 8, 8, 1, 16384, 0x35bac4c6
110, 9, 9, 1, 16384, 0xa1cd8ffb
120, 10, 10, 1, 16384, 0xf7dc38d2