avconv_filter: Use full named options
[libav.git] / tests / ref / fate / zmbv-8bit
CommitLineData
18adc1fd 1#tb 0: 15967/1119068
d2afbd9a
AK
20, 0, 0, 1, 192000, 0x5234b617
30, 1, 1, 1, 192000, 0x5234b617
40, 2, 2, 1, 192000, 0x5234b617
50, 3, 3, 1, 192000, 0x5234b617
60, 4, 4, 1, 192000, 0x5234b617
70, 5, 5, 1, 192000, 0x5234b617
80, 6, 6, 1, 192000, 0x5234b617
90, 7, 7, 1, 192000, 0x5234b617
100, 8, 8, 1, 192000, 0x5234b617
110, 9, 9, 1, 192000, 0x5234b617
120, 10, 10, 1, 192000, 0x5234b617
130, 11, 11, 1, 192000, 0x5234b617
140, 12, 12, 1, 192000, 0x5234b617
150, 13, 13, 1, 192000, 0x5234b617
160, 14, 14, 1, 192000, 0x5234b617
170, 15, 15, 1, 192000, 0x5234b617
180, 16, 16, 1, 192000, 0x5234b617
190, 17, 17, 1, 192000, 0x5234b617
200, 18, 18, 1, 192000, 0x5234b617
210, 19, 19, 1, 192000, 0x5234b617
220, 20, 20, 1, 192000, 0x5234b617
230, 21, 21, 1, 192000, 0x5234b617
240, 22, 22, 1, 192000, 0x5234b617
250, 23, 23, 1, 192000, 0x5234b617
260, 24, 24, 1, 192000, 0x5234b617
270, 25, 25, 1, 192000, 0x5234b617
280, 26, 26, 1, 192000, 0x5234b617
290, 27, 27, 1, 192000, 0x5234b617
300, 28, 28, 1, 192000, 0x5234b617
310, 29, 29, 1, 192000, 0x5234b617
320, 30, 30, 1, 192000, 0x5234b617
330, 31, 31, 1, 192000, 0x5234b617
340, 32, 32, 1, 192000, 0x5234b617
350, 33, 33, 1, 192000, 0x5234b617
360, 34, 34, 1, 192000, 0x5234b617
370, 35, 35, 1, 192000, 0x5234b617
380, 36, 36, 1, 192000, 0x5234b617
390, 37, 37, 1, 192000, 0x5234b617
400, 38, 38, 1, 192000, 0x5234b617
410, 39, 39, 1, 192000, 0x5234b617
420, 40, 40, 1, 192000, 0x5234b617
430, 41, 41, 1, 192000, 0x5234b617
440, 42, 42, 1, 192000, 0x5234b617
450, 43, 43, 1, 192000, 0x5234b617
460, 44, 44, 1, 192000, 0x5234b617
470, 45, 45, 1, 192000, 0x5234b617
480, 46, 46, 1, 192000, 0x5234b617
490, 47, 47, 1, 192000, 0x5234b617
500, 48, 48, 1, 192000, 0x5234b617
510, 49, 49, 1, 192000, 0x5234b617
520, 50, 50, 1, 192000, 0x5234b617
530, 51, 51, 1, 192000, 0x5234b617
540, 52, 52, 1, 192000, 0x5234b617
550, 53, 53, 1, 192000, 0x5234b617
560, 54, 54, 1, 192000, 0x5234b617
570, 55, 55, 1, 192000, 0x5234b617
580, 56, 56, 1, 192000, 0x5234b617
590, 57, 57, 1, 192000, 0x5234b617
600, 58, 58, 1, 192000, 0x5234b617
610, 59, 59, 1, 192000, 0x5234b617
620, 60, 60, 1, 192000, 0x5234b617
630, 61, 61, 1, 192000, 0x5234b617
640, 62, 62, 1, 192000, 0x5234b617
650, 63, 63, 1, 192000, 0x5234b617
660, 64, 64, 1, 192000, 0x5234b617
670, 65, 65, 1, 192000, 0x5234b617
680, 66, 66, 1, 192000, 0x5234b617
690, 67, 67, 1, 192000, 0x5234b617
700, 68, 68, 1, 192000, 0x5234b617
710, 69, 69, 1, 192000, 0x5234b617
720, 70, 70, 1, 192000, 0x5234b617
730, 71, 71, 1, 192000, 0x5234b617
740, 72, 72, 1, 192000, 0x5234b617
750, 73, 73, 1, 192000, 0x5234b617
760, 74, 74, 1, 192000, 0x5234b617
770, 75, 75, 1, 192000, 0x5234b617
780, 76, 76, 1, 192000, 0x5234b617
790, 77, 77, 1, 192000, 0x5234b617
800, 78, 78, 1, 192000, 0x5234b617
810, 79, 79, 1, 192000, 0x5234b617
820, 80, 80, 1, 192000, 0x5234b617
830, 81, 81, 1, 192000, 0x5234b617
840, 82, 82, 1, 192000, 0x5234b617
850, 83, 83, 1, 192000, 0x5234b617
860, 84, 84, 1, 192000, 0x5234b617
870, 85, 85, 1, 192000, 0x5234b617
880, 86, 86, 1, 192000, 0x0c148693
890, 87, 87, 1, 192000, 0x973f438b
900, 88, 88, 1, 192000, 0x602a279b
910, 89, 89, 1, 192000, 0x739c7527
920, 90, 90, 1, 192000, 0x4ef4b477
930, 91, 91, 1, 192000, 0x8fffec23
940, 92, 92, 1, 192000, 0xe192c706
950, 93, 93, 1, 192000, 0xf38000e5
960, 94, 94, 1, 192000, 0x628b9051
970, 95, 95, 1, 192000, 0xd7c162c0
980, 96, 96, 1, 192000, 0xd4b85307
990, 97, 97, 1, 192000, 0x377cf8cf
1000, 98, 98, 1, 192000, 0xf1ffdff2
1010, 99, 99, 1, 192000, 0x95a0ab01
1020, 100, 100, 1, 192000, 0xeb69c7f0
1030, 101, 101, 1, 192000, 0xfbd0af52
1040, 102, 102, 1, 192000, 0x32da6d10
1050, 103, 103, 1, 192000, 0xca8e7836
1060, 104, 104, 1, 192000, 0x404cefe9
1070, 105, 105, 1, 192000, 0x0433e9c8
1080, 106, 106, 1, 192000, 0xd6e09ecf
1090, 107, 107, 1, 192000, 0xc9a822b5
1100, 108, 108, 1, 192000, 0x032f2398
1110, 109, 109, 1, 192000, 0x9e0305bf
1120, 110, 110, 1, 192000, 0x9d66c993
1130, 111, 111, 1, 192000, 0xe126b022
1140, 112, 112, 1, 192000, 0xb59d2829
1150, 113, 113, 1, 192000, 0x967ad5b1
1160, 114, 114, 1, 192000, 0xb76ad1dc
1170, 115, 115, 1, 192000, 0xc901e6e3
1180, 116, 116, 1, 192000, 0xd22bc862
1190, 117, 117, 1, 192000, 0xe7547295
1200, 118, 118, 1, 192000, 0x179a8d78
1210, 119, 119, 1, 192000, 0x87a4310f
1220, 120, 120, 1, 192000, 0x4e24d3b3
1230, 121, 121, 1, 192000, 0xb1b8e58a
1240, 122, 122, 1, 192000, 0x0ae55330
1250, 123, 123, 1, 192000, 0xdb3288ab
1260, 124, 124, 1, 192000, 0x31867a92
1270, 125, 125, 1, 192000, 0x2a44a0a5
1280, 126, 126, 1, 192000, 0x29c062f4
1290, 127, 127, 1, 192000, 0xf4df3a2b
1300, 128, 128, 1, 192000, 0x8e424f86
1310, 129, 129, 1, 192000, 0x25b901f9
1320, 130, 130, 1, 192000, 0x77af6cad
1330, 131, 131, 1, 192000, 0x0b82d562
1340, 132, 132, 1, 192000, 0x4322dc3e
1350, 133, 133, 1, 192000, 0x4322dc3e
1360, 134, 134, 1, 192000, 0x4322dc3e
1370, 135, 135, 1, 192000, 0x2c51f91e
1380, 136, 136, 1, 192000, 0x2c51f91e
1390, 137, 137, 1, 192000, 0x2c51f91e
1400, 138, 138, 1, 192000, 0x2c51f91e
1410, 139, 139, 1, 192000, 0x197128e5
1420, 140, 140, 1, 192000, 0x197128e5
1430, 141, 141, 1, 192000, 0x197128e5
1440, 142, 142, 1, 192000, 0xb67867c5
1450, 143, 143, 1, 192000, 0xb67867c5
1460, 144, 144, 1, 192000, 0xb67867c5
1470, 145, 145, 1, 192000, 0xb67867c5
1480, 146, 146, 1, 192000, 0x62fcac19
1490, 147, 147, 1, 192000, 0x62fcac19
1500, 148, 148, 1, 192000, 0x62fcac19
1510, 149, 149, 1, 192000, 0xe4f4f281
1520, 150, 150, 1, 192000, 0xe4f4f281
1530, 151, 151, 1, 192000, 0xe4f4f281
1540, 152, 152, 1, 192000, 0xe4f4f281
1550, 153, 153, 1, 192000, 0x060c3190
1560, 154, 154, 1, 192000, 0x060c3190
1570, 155, 155, 1, 192000, 0x060c3190
1580, 156, 156, 1, 192000, 0xe5c05bb4
1590, 157, 157, 1, 192000, 0xe5c05bb4
1600, 158, 158, 1, 192000, 0xe5c05bb4
1610, 159, 159, 1, 192000, 0xe5c05bb4
1620, 160, 160, 1, 192000, 0xd4b187fc
1630, 161, 161, 1, 192000, 0xd4b187fc
1640, 162, 162, 1, 192000, 0xd4b187fc
1650, 163, 163, 1, 192000, 0x9a549a6c
1660, 164, 164, 1, 192000, 0x9a549a6c
1670, 165, 165, 1, 192000, 0x9a549a6c
1680, 166, 166, 1, 192000, 0x9a549a6c
1690, 167, 167, 1, 192000, 0xd491bd50
1700, 168, 168, 1, 192000, 0xd491bd50
1710, 169, 169, 1, 192000, 0xd491bd50
1720, 170, 170, 1, 192000, 0xfdfad4a8
1730, 171, 171, 1, 192000, 0xfdfad4a8
1740, 172, 172, 1, 192000, 0xfdfad4a8
1750, 173, 173, 1, 192000, 0xfdfad4a8
1760, 174, 174, 1, 192000, 0x363ef77c
1770, 175, 175, 1, 192000, 0x363ef77c
1780, 176, 176, 1, 192000, 0x363ef77c
1790, 177, 177, 1, 192000, 0x80c016f7
1800, 178, 178, 1, 192000, 0x80c016f7
1810, 179, 179, 1, 192000, 0x80c016f7
1820, 180, 180, 1, 192000, 0x80c016f7
1830, 181, 181, 1, 192000, 0x65852e7f
1840, 182, 182, 1, 192000, 0x65852e7f
1850, 183, 183, 1, 192000, 0x65852e7f
1860, 184, 184, 1, 192000, 0xcb13542b
1870, 185, 185, 1, 192000, 0xcb13542b
1880, 186, 186, 1, 192000, 0xcb13542b
1890, 187, 187, 1, 192000, 0xcb13542b
1900, 188, 188, 1, 192000, 0xb7a5664f
1910, 189, 189, 1, 192000, 0xb7a5664f
1920, 190, 190, 1, 192000, 0xb7a5664f
1930, 191, 191, 1, 192000, 0x8a128fd7
1940, 192, 192, 1, 192000, 0x8a128fd7
1950, 193, 193, 1, 192000, 0x8a128fd7
1960, 194, 194, 1, 192000, 0x8a128fd7
1970, 195, 195, 1, 192000, 0x9674b39b
1980, 196, 196, 1, 192000, 0x9674b39b
1990, 197, 197, 1, 192000, 0x9674b39b
2000, 198, 198, 1, 192000, 0x2940e3b3
2010, 199, 199, 1, 192000, 0x2940e3b3
2020, 200, 200, 1, 192000, 0x2940e3b3
2030, 201, 201, 1, 192000, 0x2940e3b3
2040, 202, 202, 1, 192000, 0x0440e56b
2050, 203, 203, 1, 192000, 0x0440e56b
2060, 204, 204, 1, 192000, 0x0440e56b
2070, 205, 205, 1, 192000, 0xefa3d16b
2080, 206, 206, 1, 192000, 0xefa3d16b
2090, 207, 207, 1, 192000, 0xefa3d16b
2100, 208, 208, 1, 192000, 0xefa3d16b
2110, 209, 209, 1, 192000, 0x6569b257
2120, 210, 210, 1, 192000, 0x6569b257
2130, 211, 211, 1, 192000, 0x6569b257
2140, 212, 212, 1, 192000, 0x089985d7
2150, 213, 213, 1, 192000, 0x089985d7
2160, 214, 214, 1, 192000, 0x089985d7
2170, 215, 215, 1, 192000, 0x089985d7
2180, 216, 216, 1, 192000, 0x87e160af
2190, 217, 217, 1, 192000, 0x87e160af
2200, 218, 218, 1, 192000, 0x87e160af
2210, 219, 219, 1, 192000, 0x117433bb
2220, 220, 220, 1, 192000, 0x117433bb
2230, 221, 221, 1, 192000, 0x117433bb
2240, 222, 222, 1, 192000, 0x117433bb
2250, 223, 223, 1, 192000, 0xd9e0f8bc
2260, 224, 224, 1, 192000, 0xd9e0f8bc
2270, 225, 225, 1, 192000, 0xd9e0f8bc
2280, 226, 226, 1, 192000, 0x653cac38
2290, 227, 227, 1, 192000, 0x653cac38
2300, 228, 228, 1, 192000, 0x653cac38
2310, 229, 229, 1, 192000, 0x653cac38
2320, 230, 230, 1, 192000, 0x9070526c
2330, 231, 231, 1, 192000, 0x9070526c
2340, 232, 232, 1, 192000, 0x9070526c
2350, 233, 233, 1, 192000, 0x15e6e9c9
2360, 234, 234, 1, 192000, 0x15e6e9c9
2370, 235, 235, 1, 192000, 0x15e6e9c9
2380, 236, 236, 1, 192000, 0x15e6e9c9
2390, 237, 237, 1, 192000, 0x610eab25
2400, 238, 238, 1, 192000, 0x610eab25
2410, 239, 239, 1, 192000, 0x610eab25
2420, 240, 240, 1, 192000, 0xde2a829d
2430, 241, 241, 1, 192000, 0xde2a829d
2440, 242, 242, 1, 192000, 0xde2a829d
2450, 243, 243, 1, 192000, 0xde2a829d
2460, 244, 244, 1, 192000, 0x2014becd
2470, 245, 245, 1, 192000, 0x2014becd
2480, 246, 246, 1, 192000, 0x2014becd
2490, 247, 247, 1, 192000, 0x551e0f98
2500, 248, 248, 1, 192000, 0x551e0f98
2510, 249, 249, 1, 192000, 0x551e0f98
2520, 250, 250, 1, 192000, 0x551e0f98
2530, 251, 251, 1, 192000, 0x4aaa6bec
2540, 252, 252, 1, 192000, 0x4aaa6bec
2550, 253, 253, 1, 192000, 0x4aaa6bec
2560, 254, 254, 1, 192000, 0x4053d278
2570, 255, 255, 1, 192000, 0x4053d278
2580, 256, 256, 1, 192000, 0x4053d278
2590, 257, 257, 1, 192000, 0x4053d278
2600, 258, 258, 1, 192000, 0xa0e645db
2610, 259, 259, 1, 192000, 0xa0e645db
2620, 260, 260, 1, 192000, 0xa0e645db
2630, 261, 261, 1, 192000, 0x3f1fc327
2640, 262, 262, 1, 192000, 0x3f1fc327
2650, 263, 263, 1, 192000, 0x3f1fc327
2660, 264, 264, 1, 192000, 0x3f1fc327
2670, 265, 265, 1, 192000, 0xa4ca2a9a
2680, 266, 266, 1, 192000, 0xa4ca2a9a
2690, 267, 267, 1, 192000, 0xa4ca2a9a
2700, 268, 268, 1, 192000, 0xf1b2b22e
2710, 269, 269, 1, 192000, 0xf1b2b22e
2720, 270, 270, 1, 192000, 0xf1b2b22e
2730, 271, 271, 1, 192000, 0xf1b2b22e
2740, 272, 272, 1, 192000, 0xd08e49d1
2750, 273, 273, 1, 192000, 0xd08e49d1
2760, 274, 274, 1, 192000, 0xd08e49d1
90411b33 2770, 275, 275, 1, 192000, 0x1f34135f