txd: do not set the codec timebase.
[libav.git] / tests / ref / fate / txd-16bpp
... / ...
CommitLineData
1#tb 0: 1/5
20, 0, 0, 1, 16384, 0x213f9ea8
30, 1, 1, 1, 16384, 0x8185fdb1
40, 2, 2, 1, 16384, 0xf03581d1
50, 3, 3, 1, 16384, 0x629cd573
60, 4, 4, 1, 16384, 0xfe7a5b63
70, 5, 5, 1, 16384, 0x4afc05b2
80, 6, 6, 1, 16384, 0x074b8515
90, 7, 7, 1, 16384, 0x17fde900
100, 8, 8, 1, 16384, 0x831bac76
110, 9, 9, 1, 16384, 0x2fb579f3
120, 10, 10, 1, 16384, 0x68762bed