fate: Add AIC test with odd sizes
[libav.git] / tests / ref / fate / aic-oddsize
1 #tb 0: 1/14587
2 0, 0, 0, 0, 174243, 0xa40491e1
3 0, 1000, 1000, 0, 174243, 0xa12cbb56
4 0, 2000, 2000, 0, 174243, 0xa12cbb56
5 0, 3000, 3000, 0, 174243, 0xa12cbb56
6 0, 4000, 4000, 0, 174243, 0xa12cbb56
7 0, 5000, 5000, 0, 174243, 0xa12cbb56
8 0, 6000, 6000, 0, 174243, 0xa12cbb56
9 0, 7000, 7000, 0, 174243, 0xa12cbb56
10 0, 8000, 8000, 0, 174243, 0xa12cbb56
11 0, 9000, 9000, 0, 174243, 0x4e7b7299
12 0, 10000, 10000, 0, 174243, 0x31573b99
13 0, 11000, 11000, 0, 174243, 0x013397b6
14 0, 12000, 12000, 0, 174243, 0xdd988ab8
15 0, 13000, 13000, 0, 174243, 0xd6d96b1e
16 0, 14000, 14000, 0, 174243, 0xd6d96b1e
17 0, 15000, 15000, 0, 174243, 0xd6d96b1e
18 0, 16000, 16000, 0, 174243, 0x111627d3
19 0, 17000, 17000, 0, 174243, 0x284d9ab7
20 0, 18000, 18000, 0, 174243, 0xa348c492
21 0, 19000, 19000, 0, 174243, 0xa348c492
22 0, 20000, 20000, 0, 174243, 0xa348c492
23 0, 21000, 21000, 0, 174243, 0xa348c492
24 0, 22000, 22000, 0, 174243, 0x2d22c3b8
25 0, 23000, 23000, 0, 174243, 0x2d22c3b8
26 0, 24000, 24000, 0, 174243, 0x2d22c3b8
27 0, 25000, 25000, 0, 174243, 0x2d22c3b8
28 0, 26000, 26000, 0, 174243, 0xa6d7c890
29 0, 27000, 27000, 0, 174243, 0x8068bfbb
30 0, 28000, 28000, 0, 174243, 0x420ae647
31 0, 29000, 29000, 0, 174243, 0xc5467756
32 0, 30000, 30000, 0, 174243, 0x238a13dd
33 0, 31000, 31000, 0, 174243, 0x5bab75dc
34 0, 32000, 32000, 0, 174243, 0x14d7f61f
35 0, 33000, 33000, 0, 174243, 0x2e1d334f
36 0, 34000, 34000, 0, 174243, 0xeade7dc0
37 0, 35000, 35000, 0, 174243, 0xeade7dc0
38 0, 36000, 36000, 0, 174243, 0xeade7dc0
39 0, 37000, 37000, 0, 174243, 0xeade7dc0
40 0, 38000, 38000, 0, 174243, 0x088c7ef9
41 0, 39000, 39000, 0, 174243, 0x70a3554e
42 0, 40000, 40000, 0, 174243, 0x0753d1d4
43 0, 41000, 41000, 0, 174243, 0x8266bd6d
44 0, 42000, 42000, 0, 174243, 0x4ce3cda9
45 0, 43000, 43000, 0, 174243, 0x4ce3cda9
46 0, 44000, 44000, 0, 174243, 0x4ce3cda9
47 0, 45000, 45000, 0, 174243, 0x4ce3cda9
48 0, 46000, 46000, 0, 174243, 0xe5f7cd98
49 0, 47000, 47000, 0, 174243, 0xe5f7cd98
50 0, 48000, 48000, 0, 174243, 0xe5f7cd98
51 0, 49000, 49000, 0, 174243, 0xe5f7cd98
52 0, 50000, 50000, 0, 174243, 0x78c5cdb7
53 0, 51000, 51000, 0, 174243, 0x78c5cdb7
54 0, 52000, 52000, 0, 174243, 0x78c5cdb7
55 0, 53000, 53000, 0, 174243, 0xce7ccd92
56 0, 54000, 54000, 0, 174243, 0xce7ccd92
57 0, 55000, 55000, 0, 174243, 0xce7ccd92
58 0, 56000, 56000, 0, 174243, 0xce7ccd92