fate: separate delphine-cin audio and video tests
[libav.git] / tests / ref / fate / delphine-cin-video
1 #tb 0: 1/12
2 0, 0, 0, 1, 153600, 0x00000000
3 0, 1, 1, 1, 153600, 0x9c77862c
4 0, 2, 2, 1, 153600, 0xd487c33c
5 0, 3, 3, 1, 153600, 0x5c00c01c
6 0, 4, 4, 1, 153600, 0x5496c2a2
7 0, 5, 5, 1, 153600, 0x858ac5c0
8 0, 6, 6, 1, 153600, 0xe32fc7d9
9 0, 7, 7, 1, 153600, 0xabffc965
10 0, 8, 8, 1, 153600, 0x4171c8e7
11 0, 9, 9, 1, 153600, 0xaec4ca90
12 0, 10, 10, 1, 153600, 0x3cb4cb5d
13 0, 11, 11, 1, 153600, 0x3aedcdc0
14 0, 12, 12, 1, 153600, 0x0fa4cf55
15 0, 13, 13, 1, 153600, 0x66a1d146
16 0, 14, 14, 1, 153600, 0x3828d3ad
17 0, 15, 15, 1, 153600, 0x73ccd7a4
18 0, 16, 16, 1, 153600, 0xb815d983
19 0, 17, 17, 1, 153600, 0x11a5a54f
20 0, 18, 18, 1, 153600, 0x337d8bff
21 0, 19, 19, 1, 153600, 0x0a1c8e5c
22 0, 20, 20, 1, 153600, 0x09648a57
23 0, 21, 21, 1, 153600, 0xf7398ba4
24 0, 22, 22, 1, 153600, 0x836d8aaf
25 0, 23, 23, 1, 153600, 0x4ee385bf
26 0, 24, 24, 1, 153600, 0xacf2c4d6
27 0, 25, 25, 1, 153600, 0x0610f426
28 0, 26, 26, 1, 153600, 0xb798e4a1
29 0, 27, 27, 1, 153600, 0xdaabe17e
30 0, 28, 28, 1, 153600, 0x7b82def5
31 0, 29, 29, 1, 153600, 0x56afe483
32 0, 30, 30, 1, 153600, 0x4640acef
33 0, 31, 31, 1, 153600, 0x4415f46c
34 0, 32, 32, 1, 153600, 0x258d01d0
35 0, 33, 33, 1, 153600, 0x18a55ba1
36 0, 34, 34, 1, 153600, 0x165a7173
37 0, 35, 35, 1, 153600, 0xfa8a438b
38 0, 36, 36, 1, 153600, 0x57083a34
39 0, 37, 37, 1, 153600, 0xb39923cd
40 0, 38, 38, 1, 153600, 0x3e32fd70
41 0, 39, 39, 1, 153600, 0xa7e9eb7f
42 0, 40, 40, 1, 153600, 0x8c20ed88
43 0, 41, 41, 1, 153600, 0x8c9bed27
44 0, 42, 42, 1, 153600, 0xc79af188
45 0, 43, 43, 1, 153600, 0x3bda00c8
46 0, 44, 44, 1, 153600, 0x03f837a7
47 0, 45, 45, 1, 153600, 0x550b83e3
48 0, 46, 46, 1, 153600, 0xc0bc6080
49 0, 47, 47, 1, 153600, 0xb8d968ed
50 0, 48, 48, 1, 153600, 0x893e2348
51 0, 49, 49, 1, 153600, 0x6cd01834
52 0, 50, 50, 1, 153600, 0x9e6926c5
53 0, 51, 51, 1, 153600, 0x4b57a4ea
54 0, 52, 52, 1, 153600, 0xaab2cfcd
55 0, 53, 53, 1, 153600, 0xffbb334d
56 0, 54, 54, 1, 153600, 0x4b37e5a9
57 0, 55, 55, 1, 153600, 0x3486dee0
58 0, 56, 56, 1, 153600, 0xa7185454
59 0, 57, 57, 1, 153600, 0xec29b8c2
60 0, 58, 58, 1, 153600, 0x01e562ba
61 0, 59, 59, 1, 153600, 0xe695cda3
62 0, 60, 60, 1, 153600, 0xf6b59dac
63 0, 61, 61, 1, 153600, 0xb308206b
64 0, 62, 62, 1, 153600, 0xcc6ede4a
65 0, 63, 63, 1, 153600, 0xd9f8071c
66 0, 64, 64, 1, 153600, 0xfb434821
67 0, 65, 65, 1, 153600, 0x84c97077
68 0, 66, 66, 1, 153600, 0x82dc5217
69 0, 67, 67, 1, 153600, 0xdbfd0ba8
70 0, 68, 68, 1, 153600, 0x3d71058e
71 0, 69, 69, 1, 153600, 0x3027b928
72 0, 70, 70, 1, 153600, 0x792ae3bd
73 0, 71, 71, 1, 153600, 0x36db00a7
74 0, 72, 72, 1, 153600, 0x4484e720
75 0, 73, 73, 1, 153600, 0xfaa76cdc
76 0, 74, 74, 1, 153600, 0x9f1e4c7e
77 0, 75, 75, 1, 153600, 0x4b545d88
78 0, 76, 76, 1, 153600, 0xa11cfd15
79 0, 77, 77, 1, 153600, 0x9f5d49c4
80 0, 78, 78, 1, 153600, 0x7a496740
81 0, 79, 79, 1, 153600, 0x98477803
82 0, 80, 80, 1, 153600, 0xa5fc20f8
83 0, 81, 81, 1, 153600, 0x344ff96e
84 0, 82, 82, 1, 153600, 0x20c91746
85 0, 83, 83, 1, 153600, 0x7c59b379
86 0, 84, 84, 1, 153600, 0x38e3b86d
87 0, 85, 85, 1, 153600, 0xff25a440
88 0, 86, 86, 1, 153600, 0xa1f66533
89 0, 87, 87, 1, 153600, 0xe136260a
90 0, 88, 88, 1, 153600, 0x048ccf56
91 0, 89, 89, 1, 153600, 0x65f68a24
92 0, 90, 90, 1, 153600, 0xf32b385a
93 0, 91, 91, 1, 153600, 0x3e930a8f