aarch64: Add assembly support for -fsanitize=hwaddress tagged globals.
[libav.git] / tests / ref / fate / dfa3
1 #tb 0: 1/10
2 0, 0, 0, 1, 192000, 0x10380cf0
3 0, 1, 1, 1, 192000, 0x1d74af4c
4 0, 2, 2, 1, 192000, 0xd665492d
5 0, 3, 3, 1, 192000, 0xbf544565
6 0, 4, 4, 1, 192000, 0xf8a33b00
7 0, 5, 5, 1, 192000, 0x7d08bbad
8 0, 6, 6, 1, 192000, 0x10685a90
9 0, 7, 7, 1, 192000, 0x0a1a9ef6
10 0, 8, 8, 1, 192000, 0x3e967980
11 0, 9, 9, 1, 192000, 0x9849f751