fate: rename psx-str-v3-mdec to mdec-v3
[libav.git] / tests / ref / fate / h264-conformance-cvbs3_sony_c
1 #tb 0: 1/25
2 0, 0, 0, 1, 38016, 0xb3883478
3 0, 1, 1, 1, 38016, 0xddf01d9d
4 0, 2, 2, 1, 38016, 0xb177ece2
5 0, 3, 3, 1, 38016, 0xfcd6aec1
6 0, 4, 4, 1, 38016, 0x5cb5a017
7 0, 5, 5, 1, 38016, 0xeb3884e7
8 0, 6, 6, 1, 38016, 0xa8494fb1
9 0, 7, 7, 1, 38016, 0xe0084edb
10 0, 8, 8, 1, 38016, 0x605845e7
11 0, 9, 9, 1, 38016, 0xe2103e96
12 0, 10, 10, 1, 38016, 0x3b057699
13 0, 11, 11, 1, 38016, 0x130b9413
14 0, 12, 12, 1, 38016, 0x1af773f6
15 0, 13, 13, 1, 38016, 0x1a77b1f3
16 0, 14, 14, 1, 38016, 0xbb5bac34
17 0, 15, 15, 1, 38016, 0xd41c9cf7
18 0, 16, 16, 1, 38016, 0x6df3ac7f
19 0, 17, 17, 1, 38016, 0xba44a850
20 0, 18, 18, 1, 38016, 0xe8887fc4
21 0, 19, 19, 1, 38016, 0xa50387fa
22 0, 20, 20, 1, 38016, 0x164c6317
23 0, 21, 21, 1, 38016, 0xb9c52925
24 0, 22, 22, 1, 38016, 0xfbcc2f11
25 0, 23, 23, 1, 38016, 0x5c0f258c
26 0, 24, 24, 1, 38016, 0x0d61186e
27 0, 25, 25, 1, 38016, 0xec173b07
28 0, 26, 26, 1, 38016, 0x322c353a
29 0, 27, 27, 1, 38016, 0x30f72be0
30 0, 28, 28, 1, 38016, 0xb0aa5d52
31 0, 29, 29, 1, 38016, 0x915a70e2
32 0, 30, 30, 1, 38016, 0xed9563d3
33 0, 31, 31, 1, 38016, 0x2122a450
34 0, 32, 32, 1, 38016, 0xc8a6ba0a
35 0, 33, 33, 1, 38016, 0x7fbaad08
36 0, 34, 34, 1, 38016, 0xef19d83b
37 0, 35, 35, 1, 38016, 0x4fb1d339
38 0, 36, 36, 1, 38016, 0xe73eb1a3
39 0, 37, 37, 1, 38016, 0xfd23d6f0
40 0, 38, 38, 1, 38016, 0xfc21ca53
41 0, 39, 39, 1, 38016, 0xa6c7b2c9
42 0, 40, 40, 1, 38016, 0x4fb3c8e0
43 0, 41, 41, 1, 38016, 0xdb7acc62
44 0, 42, 42, 1, 38016, 0x281db765
45 0, 43, 43, 1, 38016, 0x2e11b6e9
46 0, 44, 44, 1, 38016, 0x8237b906
47 0, 45, 45, 1, 38016, 0xe3728780
48 0, 46, 46, 1, 38016, 0x2932a82c
49 0, 47, 47, 1, 38016, 0x8a0ab2ca
50 0, 48, 48, 1, 38016, 0xdb38a893
51 0, 49, 49, 1, 38016, 0xd64cbfc3
52 0, 50, 50, 1, 38016, 0x8a53b992
53 0, 51, 51, 1, 38016, 0xef29abc9
54 0, 52, 52, 1, 38016, 0x6d64baf6
55 0, 53, 53, 1, 38016, 0xc402bf13
56 0, 54, 54, 1, 38016, 0x00c7b709
57 0, 55, 55, 1, 38016, 0x55ddcb84
58 0, 56, 56, 1, 38016, 0x22cac705
59 0, 57, 57, 1, 38016, 0xfa1bc59d
60 0, 58, 58, 1, 38016, 0x82a1d3d0
61 0, 59, 59, 1, 38016, 0x7db8d411
62 0, 60, 60, 1, 38016, 0x98a59a5a
63 0, 61, 61, 1, 38016, 0x02bda814
64 0, 62, 62, 1, 38016, 0xc4a288d9
65 0, 63, 63, 1, 38016, 0x799a3804
66 0, 64, 64, 1, 38016, 0x11474f82
67 0, 65, 65, 1, 38016, 0x0b807846
68 0, 66, 66, 1, 38016, 0x2a118c7e
69 0, 67, 67, 1, 38016, 0xa076e441
70 0, 68, 68, 1, 38016, 0x9b2c1c2b
71 0, 69, 69, 1, 38016, 0xf1433098
72 0, 70, 70, 1, 38016, 0xbf68697b
73 0, 71, 71, 1, 38016, 0x0c2c94de
74 0, 72, 72, 1, 38016, 0x5fdcb88b
75 0, 73, 73, 1, 38016, 0x543dfb09
76 0, 74, 74, 1, 38016, 0x4c602fc8
77 0, 75, 75, 1, 38016, 0x4c0b3afa
78 0, 76, 76, 1, 38016, 0x97dd846b
79 0, 77, 77, 1, 38016, 0xb5cb97f7
80 0, 78, 78, 1, 38016, 0x42dba91c
81 0, 79, 79, 1, 38016, 0x827cc117
82 0, 80, 80, 1, 38016, 0xd589cd88
83 0, 81, 81, 1, 38016, 0x15bfdd09
84 0, 82, 82, 1, 38016, 0x77cbe929
85 0, 83, 83, 1, 38016, 0x499edfb2
86 0, 84, 84, 1, 38016, 0x3bd5d22c
87 0, 85, 85, 1, 38016, 0xed0ed545
88 0, 86, 86, 1, 38016, 0x1751e754
89 0, 87, 87, 1, 38016, 0x042feed4
90 0, 88, 88, 1, 38016, 0x24dde6b3
91 0, 89, 89, 1, 38016, 0x8aa2ed66
92 0, 90, 90, 1, 38016, 0x8fa69f07
93 0, 91, 91, 1, 38016, 0xe018ad28
94 0, 92, 92, 1, 38016, 0x0b31992e
95 0, 93, 93, 1, 38016, 0xf8aa6dbc
96 0, 94, 94, 1, 38016, 0x0eb36da4
97 0, 95, 95, 1, 38016, 0x392b6658
98 0, 96, 96, 1, 38016, 0xb8056967
99 0, 97, 97, 1, 38016, 0x16899181
100 0, 98, 98, 1, 38016, 0x44b9a1b2
101 0, 99, 99, 1, 38016, 0x20ee9b98
102 0, 100, 100, 1, 38016, 0x42cdad98
103 0, 101, 101, 1, 38016, 0xd438a3d6
104 0, 102, 102, 1, 38016, 0x551e8751
105 0, 103, 103, 1, 38016, 0x68428f39
106 0, 104, 104, 1, 38016, 0x7449b249
107 0, 105, 105, 1, 38016, 0xf294a253
108 0, 106, 106, 1, 38016, 0x8628d899
109 0, 107, 107, 1, 38016, 0xba05f633
110 0, 108, 108, 1, 38016, 0x329bfacb
111 0, 109, 109, 1, 38016, 0xaa5c33dd
112 0, 110, 110, 1, 38016, 0x2b9437d9
113 0, 111, 111, 1, 38016, 0x8bd8273b
114 0, 112, 112, 1, 38016, 0xc6d541fb
115 0, 113, 113, 1, 38016, 0xb42c1e45
116 0, 114, 114, 1, 38016, 0xdd39e610
117 0, 115, 115, 1, 38016, 0xae56fe66
118 0, 116, 116, 1, 38016, 0x812a16e4
119 0, 117, 117, 1, 38016, 0x47fdff0f
120 0, 118, 118, 1, 38016, 0xfbb33b56
121 0, 119, 119, 1, 38016, 0x792a486f
122 0, 120, 120, 1, 38016, 0x32e93592
123 0, 121, 121, 1, 38016, 0xbd2142ca
124 0, 122, 122, 1, 38016, 0x2d412532
125 0, 123, 123, 1, 38016, 0x5ee8e957
126 0, 124, 124, 1, 38016, 0x57c3de13
127 0, 125, 125, 1, 38016, 0xad94b6f1
128 0, 126, 126, 1, 38016, 0x8cda97a1
129 0, 127, 127, 1, 38016, 0x3563b54e
130 0, 128, 128, 1, 38016, 0x1d2bc4fb
131 0, 129, 129, 1, 38016, 0xada2cf01
132 0, 130, 130, 1, 38016, 0x8dabed0a
133 0, 131, 131, 1, 38016, 0x441ae3c0
134 0, 132, 132, 1, 38016, 0x5514cc85
135 0, 133, 133, 1, 38016, 0xd20cddad
136 0, 134, 134, 1, 38016, 0x5286d569
137 0, 135, 135, 1, 38016, 0x1612a173
138 0, 136, 136, 1, 38016, 0x5946be84
139 0, 137, 137, 1, 38016, 0x1925b1fe
140 0, 138, 138, 1, 38016, 0xf34f93eb
141 0, 139, 139, 1, 38016, 0xac3d9add
142 0, 140, 140, 1, 38016, 0x12d18ba6
143 0, 141, 141, 1, 38016, 0xcc7f7e5a
144 0, 142, 142, 1, 38016, 0x449270ec
145 0, 143, 143, 1, 38016, 0x04416f83
146 0, 144, 144, 1, 38016, 0x50d36abf
147 0, 145, 145, 1, 38016, 0x8605799f
148 0, 146, 146, 1, 38016, 0xe6ec6cfd
149 0, 147, 147, 1, 38016, 0x1f2d3baf
150 0, 148, 148, 1, 38016, 0x9f3e1a4c
151 0, 149, 149, 1, 38016, 0x5c3ef4c8
152 0, 150, 150, 1, 38016, 0xf731aef2
153 0, 151, 151, 1, 38016, 0x90b4c921
154 0, 152, 152, 1, 38016, 0xa12dc74f
155 0, 153, 153, 1, 38016, 0x1fe2a278
156 0, 154, 154, 1, 38016, 0xa6b0b432
157 0, 155, 155, 1, 38016, 0xf9e9cb79
158 0, 156, 156, 1, 38016, 0xef58d10e
159 0, 157, 157, 1, 38016, 0x957805c0
160 0, 158, 158, 1, 38016, 0x76e03b1f
161 0, 159, 159, 1, 38016, 0xcb2a4905
162 0, 160, 160, 1, 38016, 0xb863646d
163 0, 161, 161, 1, 38016, 0x3e5f57fe
164 0, 162, 162, 1, 38016, 0xbe7d3d77
165 0, 163, 163, 1, 38016, 0x4f3c3ce5
166 0, 164, 164, 1, 38016, 0x806033d0
167 0, 165, 165, 1, 38016, 0xc31bf5da
168 0, 166, 166, 1, 38016, 0x6f8ef69e
169 0, 167, 167, 1, 38016, 0x010ac670
170 0, 168, 168, 1, 38016, 0x374e9bdd
171 0, 169, 169, 1, 38016, 0xd8499c26
172 0, 170, 170, 1, 38016, 0x5901a512
173 0, 171, 171, 1, 38016, 0x31b2bcdf
174 0, 172, 172, 1, 38016, 0x972cdda0
175 0, 173, 173, 1, 38016, 0x10c8ded1
176 0, 174, 174, 1, 38016, 0xc6e3c839
177 0, 175, 175, 1, 38016, 0xf661aa12
178 0, 176, 176, 1, 38016, 0x6ca379d0
179 0, 177, 177, 1, 38016, 0xc5a53d41
180 0, 178, 178, 1, 38016, 0x317d353c
181 0, 179, 179, 1, 38016, 0xb9962522
182 0, 180, 180, 1, 38016, 0x0769ec52
183 0, 181, 181, 1, 38016, 0x4463ea8b
184 0, 182, 182, 1, 38016, 0xdd7dd585
185 0, 183, 183, 1, 38016, 0x6039ca99
186 0, 184, 184, 1, 38016, 0x87beeba1
187 0, 185, 185, 1, 38016, 0x2503fd5d
188 0, 186, 186, 1, 38016, 0xde950c40
189 0, 187, 187, 1, 38016, 0xd6f5332f
190 0, 188, 188, 1, 38016, 0xa95b3137
191 0, 189, 189, 1, 38016, 0x37c026b4
192 0, 190, 190, 1, 38016, 0x93f9e3e3
193 0, 191, 191, 1, 38016, 0x5826b471
194 0, 192, 192, 1, 38016, 0xef81ac84
195 0, 193, 193, 1, 38016, 0x6361dfa0
196 0, 194, 194, 1, 38016, 0x9774f041
197 0, 195, 195, 1, 38016, 0xd8d01ad1
198 0, 196, 196, 1, 38016, 0x456252f3
199 0, 197, 197, 1, 38016, 0x448c6119
200 0, 198, 198, 1, 38016, 0x12157fca
201 0, 199, 199, 1, 38016, 0x145ca727
202 0, 200, 200, 1, 38016, 0x17a5b174
203 0, 201, 201, 1, 38016, 0xc0c0bb0c
204 0, 202, 202, 1, 38016, 0x9afbc5e8
205 0, 203, 203, 1, 38016, 0xc8c7cc3a
206 0, 204, 204, 1, 38016, 0x489dc5dd
207 0, 205, 205, 1, 38016, 0x6da6c7c8
208 0, 206, 206, 1, 38016, 0x6408d491
209 0, 207, 207, 1, 38016, 0x0820d9ce
210 0, 208, 208, 1, 38016, 0xebcfc8d6
211 0, 209, 209, 1, 38016, 0xf462b2a2
212 0, 210, 210, 1, 38016, 0xadb65d17
213 0, 211, 211, 1, 38016, 0xecde79e9
214 0, 212, 212, 1, 38016, 0x81786ed0
215 0, 213, 213, 1, 38016, 0x3cfc51f8
216 0, 214, 214, 1, 38016, 0x307560ba
217 0, 215, 215, 1, 38016, 0xc4f95361
218 0, 216, 216, 1, 38016, 0xe2fe384b
219 0, 217, 217, 1, 38016, 0x95de4e60
220 0, 218, 218, 1, 38016, 0x1b6147f9
221 0, 219, 219, 1, 38016, 0xe1bc385b
222 0, 220, 220, 1, 38016, 0x14cc446a
223 0, 221, 221, 1, 38016, 0x5fcb313f
224 0, 222, 222, 1, 38016, 0xf33f1721
225 0, 223, 223, 1, 38016, 0x49fc2fbb
226 0, 224, 224, 1, 38016, 0x33ad3314
227 0, 225, 225, 1, 38016, 0x92b51315
228 0, 226, 226, 1, 38016, 0x7e4d3139
229 0, 227, 227, 1, 38016, 0xb99e432b
230 0, 228, 228, 1, 38016, 0x52cb3c30
231 0, 229, 229, 1, 38016, 0xe5e48199
232 0, 230, 230, 1, 38016, 0x59419769
233 0, 231, 231, 1, 38016, 0x3e90b130
234 0, 232, 232, 1, 38016, 0x85fbfbd6
235 0, 233, 233, 1, 38016, 0xba8912ac
236 0, 234, 234, 1, 38016, 0x3fc3128c
237 0, 235, 235, 1, 38016, 0x61db4d37
238 0, 236, 236, 1, 38016, 0x3c405a46
239 0, 237, 237, 1, 38016, 0x9c113b43
240 0, 238, 238, 1, 38016, 0x739c43f4
241 0, 239, 239, 1, 38016, 0xffab0fe6
242 0, 240, 240, 1, 38016, 0x99cee4bd
243 0, 241, 241, 1, 38016, 0xd76dcff5
244 0, 242, 242, 1, 38016, 0xe8ccb16c
245 0, 243, 243, 1, 38016, 0x43d8ff1f
246 0, 244, 244, 1, 38016, 0xffde708b
247 0, 245, 245, 1, 38016, 0xe5cfd3d4
248 0, 246, 246, 1, 38016, 0x0b67ef9f
249 0, 247, 247, 1, 38016, 0xd54cd697
250 0, 248, 248, 1, 38016, 0x5879926e
251 0, 249, 249, 1, 38016, 0x9cb01428
252 0, 250, 250, 1, 38016, 0x09b0c0b7
253 0, 251, 251, 1, 38016, 0xbbef721e
254 0, 252, 252, 1, 38016, 0xcebd66ea
255 0, 253, 253, 1, 38016, 0x7492c956
256 0, 254, 254, 1, 38016, 0xeaa5317b
257 0, 255, 255, 1, 38016, 0xe952c9bd
258 0, 256, 256, 1, 38016, 0xb4cfd878
259 0, 257, 257, 1, 38016, 0xa8675f14
260 0, 258, 258, 1, 38016, 0x24653121
261 0, 259, 259, 1, 38016, 0xeec9425e
262 0, 260, 260, 1, 38016, 0x14413e58
263 0, 261, 261, 1, 38016, 0xc8e13f0a
264 0, 262, 262, 1, 38016, 0x09045f0f
265 0, 263, 263, 1, 38016, 0xa021583e
266 0, 264, 264, 1, 38016, 0x26384591
267 0, 265, 265, 1, 38016, 0x157b55d2
268 0, 266, 266, 1, 38016, 0x22973c65
269 0, 267, 267, 1, 38016, 0x2fe30f64
270 0, 268, 268, 1, 38016, 0xf640fab4
271 0, 269, 269, 1, 38016, 0x2b82d807
272 0, 270, 270, 1, 38016, 0x6faca613
273 0, 271, 271, 1, 38016, 0x8a5b89c3
274 0, 272, 272, 1, 38016, 0xb7d76316
275 0, 273, 273, 1, 38016, 0x3e3a0a82
276 0, 274, 274, 1, 38016, 0x7d93d78b
277 0, 275, 275, 1, 38016, 0xa3bcc050
278 0, 276, 276, 1, 38016, 0x41d4b2ba
279 0, 277, 277, 1, 38016, 0x7a08d518
280 0, 278, 278, 1, 38016, 0xd6b0f72b
281 0, 279, 279, 1, 38016, 0x9c794c7b
282 0, 280, 280, 1, 38016, 0xc2680d18
283 0, 281, 281, 1, 38016, 0x9fa6db96
284 0, 282, 282, 1, 38016, 0xd90c83c3
285 0, 283, 283, 1, 38016, 0xf1278cf5
286 0, 284, 284, 1, 38016, 0xf2ce5e19
287 0, 285, 285, 1, 38016, 0x2d41a44b
288 0, 286, 286, 1, 38016, 0xade2715b
289 0, 287, 287, 1, 38016, 0xd21da6fe
290 0, 288, 288, 1, 38016, 0x37c89e7f
291 0, 289, 289, 1, 38016, 0x6bad76e8
292 0, 290, 290, 1, 38016, 0xfefce893
293 0, 291, 291, 1, 38016, 0xcd301b29
294 0, 292, 292, 1, 38016, 0x0e80a08d
295 0, 293, 293, 1, 38016, 0x88f3d605
296 0, 294, 294, 1, 38016, 0x80273791
297 0, 295, 295, 1, 38016, 0x36472009
298 0, 296, 296, 1, 38016, 0xe8b6fc54
299 0, 297, 297, 1, 38016, 0x5d9bfd2d
300 0, 298, 298, 1, 38016, 0x61df1820
301 0, 299, 299, 1, 38016, 0x8db23b5c