fate: rename psx-str-v3-mdec to mdec-v3
[libav.git] / tests / ref / fate / h264-conformance-frext-brcm_freh8
1 #tb 0: 1/25
2 0, 0, 0, 1, 152064, 0xdcc4ac76
3 0, 1, 1, 1, 152064, 0xfde6871a
4 0, 2, 2, 1, 152064, 0xe8a351b5
5 0, 3, 3, 1, 152064, 0x0e586608
6 0, 4, 4, 1, 152064, 0xbe3c2adc
7 0, 5, 5, 1, 152064, 0x244a5b3c
8 0, 6, 6, 1, 152064, 0x7cad919e
9 0, 7, 7, 1, 152064, 0x24c452c0
10 0, 8, 8, 1, 152064, 0x089dc7f0
11 0, 9, 9, 1, 152064, 0x6ee5d1dd
12 0, 10, 10, 1, 152064, 0x177430f0
13 0, 11, 11, 1, 152064, 0xf2af65f6
14 0, 12, 12, 1, 152064, 0x4c4626a7
15 0, 13, 13, 1, 152064, 0x897af1da
16 0, 14, 14, 1, 152064, 0xf16199b1
17 0, 15, 15, 1, 152064, 0x2979a469
18 0, 16, 16, 1, 152064, 0x5ce345a0
19 0, 17, 17, 1, 152064, 0x1a044ff3
20 0, 18, 18, 1, 152064, 0x9075241f
21 0, 19, 19, 1, 152064, 0xd1457558
22 0, 20, 20, 1, 152064, 0xdfe3669f
23 0, 21, 21, 1, 152064, 0x4961fc7a
24 0, 22, 22, 1, 152064, 0xb84daee5
25 0, 23, 23, 1, 152064, 0xc4efe5c3
26 0, 24, 24, 1, 152064, 0x35f73410
27 0, 25, 25, 1, 152064, 0xf99a2c73
28 0, 26, 26, 1, 152064, 0xe5c12391
29 0, 27, 27, 1, 152064, 0xc2056236
30 0, 28, 28, 1, 152064, 0xce2bff90
31 0, 29, 29, 1, 152064, 0x01d92bb1
32 0, 30, 30, 1, 152064, 0xc55eb558
33 0, 31, 31, 1, 152064, 0xf02ef0ff
34 0, 32, 32, 1, 152064, 0x069dd1c6
35 0, 33, 33, 1, 152064, 0x49718229
36 0, 34, 34, 1, 152064, 0x0e9ea401
37 0, 35, 35, 1, 152064, 0x307e7f8b
38 0, 36, 36, 1, 152064, 0xf5071e31
39 0, 37, 37, 1, 152064, 0xac2c2ad0
40 0, 38, 38, 1, 152064, 0x5586d665
41 0, 39, 39, 1, 152064, 0xa62a6a2b
42 0, 40, 40, 1, 152064, 0xff167d1b
43 0, 41, 41, 1, 152064, 0x02d225c2
44 0, 42, 42, 1, 152064, 0x868ccb0b
45 0, 43, 43, 1, 152064, 0x36edfa29
46 0, 44, 44, 1, 152064, 0xb6244864
47 0, 45, 45, 1, 152064, 0xd891b5dc
48 0, 46, 46, 1, 152064, 0x9246b763
49 0, 47, 47, 1, 152064, 0xea240b61
50 0, 48, 48, 1, 152064, 0x2d985877
51 0, 49, 49, 1, 152064, 0xe6b92603
52 0, 50, 50, 1, 152064, 0x102ac84f
53 0, 51, 51, 1, 152064, 0xddaf709b
54 0, 52, 52, 1, 152064, 0x48dfb25e
55 0, 53, 53, 1, 152064, 0xf2acadbb
56 0, 54, 54, 1, 152064, 0x647685f5
57 0, 55, 55, 1, 152064, 0x893874c9
58 0, 56, 56, 1, 152064, 0xdfd7ed77
59 0, 57, 57, 1, 152064, 0x97b36277
60 0, 58, 58, 1, 152064, 0x59f33282
61 0, 59, 59, 1, 152064, 0xba5c6a0e
62 0, 60, 60, 1, 152064, 0x7856ddf0
63 0, 61, 61, 1, 152064, 0x74e5f095
64 0, 62, 62, 1, 152064, 0x76167a60
65 0, 63, 63, 1, 152064, 0xa6cf2255
66 0, 64, 64, 1, 152064, 0x9f8b1446
67 0, 65, 65, 1, 152064, 0xa775aa79
68 0, 66, 66, 1, 152064, 0x5662a698
69 0, 67, 67, 1, 152064, 0xe6321e5b
70 0, 68, 68, 1, 152064, 0xdaea9a83
71 0, 69, 69, 1, 152064, 0xd89d835f
72 0, 70, 70, 1, 152064, 0x0b1503e2
73 0, 71, 71, 1, 152064, 0x7fef6395
74 0, 72, 72, 1, 152064, 0xc27273f2
75 0, 73, 73, 1, 152064, 0xff9288fd
76 0, 74, 74, 1, 152064, 0xb76aee35
77 0, 75, 75, 1, 152064, 0xbd0dc4b2
78 0, 76, 76, 1, 152064, 0x3085598e
79 0, 77, 77, 1, 152064, 0x22e408f6
80 0, 78, 78, 1, 152064, 0xc054866d
81 0, 79, 79, 1, 152064, 0x881377f8
82 0, 80, 80, 1, 152064, 0x0dd7311e
83 0, 81, 81, 1, 152064, 0x627ea688
84 0, 82, 82, 1, 152064, 0x95bbe693
85 0, 83, 83, 1, 152064, 0x806c480f
86 0, 84, 84, 1, 152064, 0x6feb3d47
87 0, 85, 85, 1, 152064, 0x639f0a72
88 0, 86, 86, 1, 152064, 0x4922909d
89 0, 87, 87, 1, 152064, 0x44bbc195
90 0, 88, 88, 1, 152064, 0xf119ca8f
91 0, 89, 89, 1, 152064, 0x6f46e9c8
92 0, 90, 90, 1, 152064, 0xd68e222a
93 0, 91, 91, 1, 152064, 0xedc716eb
94 0, 92, 92, 1, 152064, 0x090a7702
95 0, 93, 93, 1, 152064, 0xc94eac7a
96 0, 94, 94, 1, 152064, 0x629d8823
97 0, 95, 95, 1, 152064, 0x30a51f8c
98 0, 96, 96, 1, 152064, 0x4265666b
99 0, 97, 97, 1, 152064, 0x766dfd25
100 0, 98, 98, 1, 152064, 0x7dc37c52
101 0, 99, 99, 1, 152064, 0x07c65fbe