fate: rename psx-str-v3-mdec to mdec-v3
[libav.git] / tests / ref / fate / h264-conformance-frext-pph10i2_panasonic_a
1 #tb 0: 1/25
2 0, 0, 0, 1, 2764800, 0x4f710132
3 0, 1, 1, 1, 2764800, 0x57e5b713
4 0, 2, 2, 1, 2764800, 0xcca01477
5 0, 3, 3, 1, 2764800, 0xa19a95cd
6 0, 4, 4, 1, 2764800, 0x700a757d
7 0, 5, 5, 1, 2764800, 0xd8c6f60f
8 0, 6, 6, 1, 2764800, 0x95a1bbc7
9 0, 7, 7, 1, 2764800, 0x0582077a
10 0, 8, 8, 1, 2764800, 0x91595f91
11 0, 9, 9, 1, 2764800, 0xf5fe034a