fate: rename psx-str-v3-mdec to mdec-v3
[libav.git] / tests / ref / fate / mdec-v3
1 #tb 0: 1/15
2 0, 0, 0, 1, 76800, 0x2677be82
3 0, 1, 1, 1, 76800, 0x1f323c75
4 0, 2, 2, 1, 76800, 0xc8be3be9
5 0, 3, 3, 1, 76800, 0x1f323c75
6 0, 4, 4, 1, 76800, 0x7e484488
7 0, 5, 5, 1, 76800, 0x8bd644aa
8 0, 6, 6, 1, 76800, 0xaa62e7b8
9 0, 7, 7, 1, 76800, 0xaa62e7b8
10 0, 8, 8, 1, 76800, 0x53fadb39
11 0, 9, 9, 1, 76800, 0x53fadb39
12 0, 10, 10, 1, 76800, 0x1ff9d964
13 0, 11, 11, 1, 76800, 0x1ff9d964
14 0, 12, 12, 1, 76800, 0xd8c8d947
15 0, 13, 13, 1, 76800, 0xd8c8d947
16 0, 14, 14, 1, 76800, 0x6d0bd94c
17 0, 15, 15, 1, 76800, 0x6d0bd94c
18 0, 16, 16, 1, 76800, 0x7e66d948
19 0, 17, 17, 1, 76800, 0x7e66d948
20 0, 18, 18, 1, 76800, 0x8eecfd72
21 0, 19, 19, 1, 76800, 0xb15f29ab
22 0, 20, 20, 1, 76800, 0x08e5502e
23 0, 21, 21, 1, 76800, 0xaa58796d
24 0, 22, 22, 1, 76800, 0xe254a27c
25 0, 23, 23, 1, 76800, 0xeec8cf68
26 0, 24, 24, 1, 76800, 0x812bf8ee
27 0, 25, 25, 1, 76800, 0x929922ef
28 0, 26, 26, 1, 76800, 0xe1174e06
29 0, 27, 27, 1, 76800, 0x2da77bf1
30 0, 28, 28, 1, 76800, 0xd0f6a727
31 0, 29, 29, 1, 76800, 0x31bfd168
32 0, 30, 30, 1, 76800, 0xb87af225
33 0, 31, 31, 1, 76800, 0xd0080859
34 0, 32, 32, 1, 76800, 0x99ab15ba
35 0, 33, 33, 1, 76800, 0x99ab15ba
36 0, 34, 34, 1, 76800, 0x99ab15ba
37 0, 35, 35, 1, 76800, 0x99ab15ba
38 0, 36, 36, 1, 76800, 0x99ab15ba
39 0, 37, 37, 1, 76800, 0x99ab15ba
40 0, 38, 38, 1, 76800, 0x99ab15ba
41 0, 39, 39, 1, 76800, 0x99ab15ba
42 0, 40, 40, 1, 76800, 0x99ab15ba
43 0, 41, 41, 1, 76800, 0x99ab15ba
44 0, 42, 42, 1, 76800, 0x99ab15ba
45 0, 43, 43, 1, 76800, 0x99ab15ba
46 0, 44, 44, 1, 76800, 0x99ab15ba
47 0, 45, 45, 1, 76800, 0x99ab15ba
48 0, 46, 46, 1, 76800, 0x99ab15ba
49 0, 47, 47, 1, 76800, 0x99ab15ba
50 0, 48, 48, 1, 76800, 0x0c1617d5
51 0, 49, 49, 1, 76800, 0xb1c81b5d
52 0, 50, 50, 1, 76800, 0xb4e41e44
53 0, 51, 51, 1, 76800, 0x765725e2
54 0, 52, 52, 1, 76800, 0x25cd3109
55 0, 53, 53, 1, 76800, 0xa42b5291
56 0, 54, 54, 1, 76800, 0x15bb6ee4
57 0, 55, 55, 1, 76800, 0xb33c9f50
58 0, 56, 56, 1, 76800, 0x1ca1b874
59 0, 57, 57, 1, 76800, 0x7506e92a
60 0, 58, 58, 1, 76800, 0x97c9030a