fate: add a pngparser test
[libav.git] / tests / ref / fate / pngparser
1 #tb 0: 1/25
2 0, 0, 0, 1, 271040, 0xffe62f5f
3 0, 1, 1, 1, 271040, 0xcf502f5f
4 0, 2, 2, 1, 271040, 0x72612f5f
5 0, 3, 3, 1, 271040, 0x41cb2f5f