fate: convert psx-str to a demuxer test
[libav.git] / tests / ref / fate / psx-str-demux
1 #tb 0: 1/15
2 #tb 1: 4/75
3 0, 0, 0, 1, 8832, 0x01ad3eeb
4 1, 0, 0, 1, 2304, 0xf0ad1000
5 1, 1, 1, 1, 2304, 0x69269ce6
6 0, 1, 1, 1, 8968, 0xe0033799
7 1, 2, 2, 1, 2304, 0x124a995d
8 0, 2, 2, 1, 9036, 0xd6189ab7
9 1, 3, 3, 1, 2304, 0x3fc0ca07
10 0, 3, 3, 1, 9192, 0xb44b9ffa
11 1, 4, 4, 1, 2304, 0x40a1b447
12 0, 4, 4, 1, 9404, 0xe94dfd40
13 1, 5, 5, 1, 2304, 0x150dae9f
14 1, 6, 6, 1, 2304, 0xad16bc63
15 0, 5, 5, 1, 9492, 0xf73f2541
16 1, 7, 7, 1, 2304, 0xe989b175
17 0, 6, 6, 1, 9652, 0x243d53f8
18 1, 8, 8, 1, 2304, 0x3c77cd39
19 0, 7, 7, 1, 9872, 0x83f3ea7a
20 1, 9, 9, 1, 2304, 0x93f0c2ba
21 0, 8, 8, 1, 10052, 0x7604247a
22 1, 10, 10, 1, 2304, 0x6e2ad2d0
23 1, 11, 11, 1, 2304, 0xf8eab90a
24 0, 9, 9, 1, 10100, 0x077107fd
25 1, 12, 12, 1, 2304, 0xc039bf0d
26 0, 10, 10, 1, 10264, 0xae675eb6
27 1, 13, 13, 1, 2304, 0x0900c7e8
28 0, 11, 11, 1, 10464, 0x428f83ae
29 1, 14, 14, 1, 2304, 0x9722d580
30 0, 12, 12, 1, 10580, 0x1bdcd71b
31 1, 15, 15, 1, 2304, 0x02eec8de
32 1, 16, 16, 1, 2304, 0x4807a2b3
33 0, 13, 13, 1, 10800, 0xde75213a
34 1, 17, 17, 1, 2304, 0x4643be06
35 0, 14, 14, 1, 11236, 0x9387cc8e
36 1, 18, 18, 1, 2304, 0x5bd9d249
37 0, 15, 15, 1, 11420, 0x3a7d321b
38 1, 19, 19, 1, 2304, 0x4e33c2bc
39 0, 16, 16, 1, 11632, 0x7edc9cdf
40 1, 20, 20, 1, 2304, 0x085ca51d
41 1, 21, 21, 1, 2304, 0xa205b202
42 0, 17, 17, 1, 11936, 0xf0521017
43 1, 22, 22, 1, 2304, 0x71b9bcca
44 0, 18, 18, 1, 11804, 0x53b22066
45 1, 23, 23, 1, 2304, 0xcb769e5f
46 0, 19, 19, 1, 11852, 0x9425fb21
47 1, 24, 24, 1, 2304, 0x9322d85a
48 0, 20, 20, 1, 12108, 0xc386941d
49 1, 25, 25, 1, 2304, 0x7f13bf6e
50 1, 26, 26, 1, 2304, 0xd302a5cd
51 0, 21, 21, 1, 12796, 0x8b7e5dab
52 1, 27, 27, 1, 2304, 0x7a7a9e30
53 0, 22, 22, 1, 13316, 0x81235102
54 1, 28, 28, 1, 2304, 0x6ffccfdd
55 0, 23, 23, 1, 13724, 0xe5fc2bca
56 1, 29, 29, 1, 2304, 0xae88bf7a
57 0, 24, 24, 1, 14304, 0xa5b1f811
58 1, 30, 30, 1, 2304, 0xf816c2f5
59 1, 31, 31, 1, 2304, 0xdb42a783
60 0, 25, 25, 1, 15216, 0xf4996763
61 1, 32, 32, 1, 2304, 0xfc55c021
62 0, 26, 26, 1, 16224, 0xe30b0679
63 1, 33, 33, 1, 2304, 0x9da68fc1
64 0, 27, 27, 1, 10640, 0xaeb122c9
65 1, 34, 34, 1, 2304, 0x2f65bb0f
66 0, 28, 28, 1, 11652, 0x087d18b1
67 1, 35, 35, 1, 2304, 0x6e5da2c7
68 1, 36, 36, 1, 2304, 0xb0b0c5f8
69 0, 29, 29, 1, 12008, 0x1eeeac41
70 1, 37, 37, 1, 2304, 0x32559dc6
71 0, 30, 30, 1, 12344, 0x488c64ec
72 1, 38, 38, 1, 2304, 0x9168aed0
73 0, 31, 31, 1, 13004, 0x02a69339
74 1, 39, 39, 1, 2304, 0x32069bce
75 0, 32, 32, 1, 14092, 0x348a7d3f
76 1, 40, 40, 1, 2304, 0x763ca8e0
77 1, 41, 41, 1, 2304, 0x70c7a44e
78 0, 33, 33, 1, 15048, 0xa55ef200
79 1, 42, 42, 1, 2304, 0x7dc1b275
80 0, 34, 34, 1, 16100, 0xac17de5b
81 1, 43, 43, 1, 2304, 0x2e26ceae
82 0, 35, 35, 1, 13180, 0x4d874f61
83 1, 44, 44, 1, 2304, 0xa071a7e2
84 0, 36, 36, 1, 14592, 0x5f58f505
85 1, 45, 45, 1, 2304, 0xe434ad92
86 1, 46, 46, 1, 2304, 0xb4469381
87 0, 37, 37, 1, 14372, 0x369bb5d9
88 1, 47, 47, 1, 2304, 0x3f20a7c5
89 0, 38, 38, 1, 16172, 0x513a97b6
90 1, 48, 48, 1, 2304, 0x68ef9ef9
91 0, 39, 39, 1, 15136, 0x7f9a3865
92 1, 49, 49, 1, 2304, 0x32dbb3e2
93 0, 40, 40, 1, 16336, 0x1339ba5f
94 1, 50, 50, 1, 2304, 0xdd90c7c3
95 1, 51, 51, 1, 2304, 0xd106adb5
96 0, 41, 41, 1, 16944, 0x122f71b7
97 1, 52, 52, 1, 2304, 0x11dca8c4
98 0, 42, 42, 1, 17536, 0x7461b152
99 1, 53, 53, 1, 2304, 0x646d98bc
100 0, 43, 43, 1, 13940, 0xf5278274
101 1, 54, 54, 1, 2304, 0x6f019e81
102 0, 44, 44, 1, 8592, 0x4bb2eaea
103 1, 55, 55, 1, 2304, 0xc872a896
104 1, 56, 56, 1, 2304, 0xc7d7a0bc
105 0, 45, 45, 1, 8584, 0x2ff1e3db
106 1, 57, 57, 1, 2304, 0x181b880a
107 0, 46, 46, 1, 8548, 0xadfd01b4
108 1, 58, 58, 1, 2304, 0x6486b158
109 0, 47, 47, 1, 8548, 0x9e2ec85f
110 1, 59, 59, 1, 2304, 0x26d5a3db
111 0, 48, 48, 1, 8540, 0x9e2ad166
112 1, 60, 60, 1, 2304, 0x4ff89a4d
113 1, 61, 61, 1, 2304, 0xc42e9552
114 0, 49, 49, 1, 8524, 0x047bc406
115 1, 62, 62, 1, 2304, 0x0dc1c346
116 0, 50, 50, 1, 8508, 0xd051ddbb
117 1, 63, 63, 1, 2304, 0x5e51b7a5
118 0, 51, 51, 1, 8572, 0x40b5004c
119 1, 64, 64, 1, 2304, 0xbd49c142
120 0, 52, 52, 1, 8564, 0xb379db59
121 1, 65, 65, 1, 2304, 0x373da274
122 1, 66, 66, 1, 2304, 0xde97b1bb
123 0, 53, 53, 1, 8592, 0x22d0bc35
124 1, 67, 67, 1, 2304, 0x9715bf29
125 0, 54, 54, 1, 8656, 0xa58917d5
126 1, 68, 68, 1, 2304, 0xc341b4ef
127 0, 55, 55, 1, 8616, 0xc9e4f431
128 1, 69, 69, 1, 2304, 0xc610adc6
129 0, 56, 56, 1, 8660, 0x7a90ffd1
130 1, 70, 70, 1, 2304, 0x67bba315
131 1, 71, 71, 1, 2304, 0x949b9c16
132 0, 57, 57, 1, 8636, 0xec8ce437
133 1, 72, 72, 1, 2304, 0xc7c1a8ca
134 0, 58, 58, 1, 8668, 0x8b73139f
135 1, 73, 73, 1, 2304, 0x1929bc7e
136 0, 59, 59, 1, 8640, 0x3ee30f9c
137 1, 74, 74, 1, 2304, 0x5fc97897
138 0, 60, 60, 1, 8728, 0xdbe12a94
139 1, 75, 75, 1, 2304, 0x272da8d3
140 1, 76, 76, 1, 2304, 0x141e904d
141 0, 61, 61, 1, 8748, 0xc4132fd5
142 1, 77, 77, 1, 2304, 0x9880b0ed
143 0, 62, 62, 1, 8720, 0x7ac9316a
144 1, 78, 78, 1, 2304, 0x0438932a
145 0, 63, 63, 1, 8756, 0xf47d843d
146 1, 79, 79, 1, 2304, 0x27069761
147 0, 64, 64, 1, 8840, 0x82808e79
148 1, 80, 80, 1, 2304, 0x0baba2b7
149 1, 81, 81, 1, 2304, 0x4bc491af
150 0, 65, 65, 1, 8908, 0x63568647
151 1, 82, 82, 1, 2304, 0x72e18e82
152 0, 66, 66, 1, 8968, 0xbd26de31
153 1, 83, 83, 1, 2304, 0xf85d8a91
154 0, 67, 67, 1, 9168, 0xe1cd43a3
155 1, 84, 84, 1, 2304, 0x653582e3
156 0, 68, 68, 1, 9272, 0x0cc64c79
157 1, 85, 85, 1, 2304, 0x6b5e8084
158 1, 86, 86, 1, 2304, 0x8cc27d10
159 0, 69, 69, 1, 9700, 0x5cd2be73
160 1, 87, 87, 1, 2304, 0xcf8f9e1d
161 0, 70, 70, 1, 9868, 0x9b1629ae
162 1, 88, 88, 1, 2304, 0xecbe89df
163 0, 71, 71, 1, 10264, 0xa13cb7db
164 1, 89, 89, 1, 2304, 0xa433753d
165 0, 72, 72, 1, 10908, 0xe995858e
166 1, 90, 90, 1, 2304, 0xe386afe9
167 1, 91, 91, 1, 2304, 0x90409771
168 0, 73, 73, 1, 11272, 0xebea53f6
169 1, 92, 92, 1, 2304, 0x29c88ae5
170 0, 74, 74, 1, 12128, 0xdfa8b7aa
171 1, 93, 93, 1, 2304, 0x900b9e6a
172 0, 75, 75, 1, 12560, 0x46048576
173 1, 94, 94, 1, 2304, 0x958cbb49
174 0, 76, 76, 1, 12900, 0x5b3aeb76
175 1, 95, 95, 1, 2304, 0xf83da537
176 1, 96, 96, 1, 2304, 0x5fad9e5f
177 0, 77, 77, 1, 13544, 0x0f98fb94
178 1, 97, 97, 1, 2304, 0xae15902a
179 0, 78, 78, 1, 13968, 0x7c17c4c2
180 1, 98, 98, 1, 2304, 0xf2a8b9d8
181 0, 79, 79, 1, 15020, 0xe8faa930
182 1, 99, 99, 1, 2304, 0x7bc99f71
183 0, 80, 80, 1, 16152, 0x3f004f78
184 1, 100, 100, 1, 2304, 0x3f199672
185 1, 101, 101, 1, 2304, 0x4e258c38
186 0, 81, 81, 1, 17224, 0x103f3935
187 1, 102, 102, 1, 2304, 0x5119b909
188 0, 82, 82, 1, 11956, 0x7af9354a
189 1, 103, 103, 1, 2304, 0xad57a533
190 0, 83, 83, 1, 12644, 0xe113a4b2
191 1, 104, 104, 1, 2304, 0xe40eb453
192 0, 84, 84, 1, 13420, 0xdf3ec8a4
193 1, 105, 105, 1, 2304, 0x502cc37e
194 1, 106, 106, 1, 2304, 0x5b7bae9a
195 0, 85, 85, 1, 14140, 0x0ad8a165
196 1, 107, 107, 1, 2304, 0x0458a92d
197 0, 86, 86, 1, 15192, 0xc55f45cd
198 1, 108, 108, 1, 2304, 0x1529aba8
199 0, 87, 87, 1, 12740, 0xa13c85db
200 1, 109, 109, 1, 2304, 0x1a52a9d1
201 0, 88, 88, 1, 14416, 0x9e68b57d
202 1, 110, 110, 1, 2304, 0x76a2a7c9