fate: Add another SVQ3 test to increase coverage
[libav.git] / tests / ref / fate / svq3-2
1 #tb 0: 1/19200
2 0, -20000, -20000, 0, 185280, 0x061c0d85
3 0, -19200, -19200, 0, 185280, 0x427ef9a7
4 0, -18400, -18400, 0, 185280, 0x8f495d37
5 0, -17600, -17600, 0, 185280, 0x5bfd0e5b
6 0, -16800, -16800, 0, 185280, 0x60d12d25
7 0, -16000, -16000, 0, 185280, 0x25aaa51b
8 0, -15200, -15200, 0, 185280, 0x9cf58bf0
9 0, -14400, -14400, 0, 185280, 0xd9bd03ea
10 0, -13600, -13600, 0, 185280, 0xd18be732
11 0, -12800, -12800, 0, 185280, 0x92763708
12 0, -12000, -12000, 0, 185280, 0x94b5784a
13 0, -11200, -11200, 0, 185280, 0x32b184c9
14 0, -10400, -10400, 0, 185280, 0xe316fec3
15 0, -9600, -9600, 0, 185280, 0x6344ec88
16 0, -8800, -8800, 0, 185280, 0xe0aa6de4
17 0, -8000, -8000, 0, 185280, 0x6cfc8687
18 0, -7200, -7200, 0, 185280, 0x26ddc189
19 0, -6400, -6400, 0, 185280, 0x5a0c1b38
20 0, -5600, -5600, 0, 185280, 0x79a88cb9