fate: truemotion1: disable audio
[libav.git] / tests / ref / fate / truemotion1-24
1 #tb 0: 1/15
2 0, 0, 0, 1, 69120, 0x68beb30f
3 0, 1, 1, 1, 69120, 0x3976f5cf
4 0, 2, 2, 1, 69120, 0xf815bc3c
5 0, 3, 3, 1, 69120, 0xa7cc0ae6
6 0, 4, 4, 1, 69120, 0xd85ac282
7 0, 5, 5, 1, 69120, 0xf7fd7edb
8 0, 6, 6, 1, 69120, 0x433bb6f6
9 0, 7, 7, 1, 69120, 0xdbac8bee
10 0, 8, 8, 1, 69120, 0x88e2a799
11 0, 9, 9, 1, 69120, 0x49617b26
12 0, 10, 10, 1, 69120, 0xeb44ca01
13 0, 11, 11, 1, 69120, 0x6fea37e8
14 0, 12, 12, 1, 69120, 0xf55d74c7
15 0, 13, 13, 1, 69120, 0xb5082ca7
16 0, 14, 14, 1, 69120, 0x5876d758