fate: Avoid unnecessary pixel format conversions
[libav.git] / tests / ref / fate / txd-16bpp
1 #tb 0: 1/5
2 0, 0, 0, 1, 16384, 0x4d39b4cb
3 0, 1, 1, 1, 16384, 0x2a8d14b4
4 0, 2, 2, 1, 16384, 0xe26793cb
5 0, 3, 3, 1, 16384, 0x62b5ed43
6 0, 4, 4, 1, 16384, 0x5ae86c21
7 0, 5, 5, 1, 16384, 0x416d184a
8 0, 6, 6, 1, 16384, 0x33f59d3e
9 0, 7, 7, 1, 16384, 0x3d0ffd9c
10 0, 8, 8, 1, 16384, 0x35bac4c6
11 0, 9, 9, 1, 16384, 0xa1cd8ffb
12 0, 10, 10, 1, 16384, 0xf7dc38d2